(Classical Crossover) All Angels — All Angels - 2006, FLAC (tracks+.cue), lossless


 

[Цитировать]

All Angels — All Angels - -
Жанр: Classical Crossover
Страна: UK
Год издания диска: 2006
Издатель (лейбл): Universal Music / UCJ Music
Номер по каталогу: Universal Music ‎– 170 9223, UCJ Music ‎– 170 9223
Аудио кодек: FLAC
Тип рипа: (tracks+.cue)
Битрейт аудио: lossless
Продолжительность: 0:48:12
Источник: what.cd
Наличие сканов в содержимом раздачи: нет

-
Треклист:

1 Songbird (2:54)
2 The Flower Duet (4:56)
3 Salve Regina [based On Pachelbel's Canon] (3:47)
4 Steal Away (2:44)
5 Windmills Of Your Mind (3:05)
6 Barcarolle [from The Tales Of Hoffman] (3:25)
7 Silent Night (3:14)
8 Sancta Maria [intermezzo From Cavelleria Rusticana] (3:04)
9 Ave Verum Corpus [theme From Brideshead Revisited] (3:31)
10 Angels (4:19)
11 Ave Maria (3:28)
12 Pokarekare Ana (3:15)
13 Agnus Dei (6:24)

Лог создания рипа

Exact Audio Copy V1.0 beta 3 from 29. August 2011
EAC extraction logfile from 26. September 2012, 14:12
All Angels / All Angels
Used drive : ASUS DRW-2014L1T Adapter: 0 ID: 2
Read mode : SecureUtilize accurate stream : YesDefeat audio cache : YesMake use of C2 pointers : No
Read offset correction : 6Overread into Lead-In and Lead-Out : NoFill up missing offset samples with silence : YesDelete leading and trailing silent blocks : NoNull samples used in CRC calculations : YesUsed interface : Native Win32 interface for Win NT & 2000Gap handling : Appended to previous track
Used output format : User Defined EncoderSelected bitrate : 1024 kBit/sQuality : HighAdd ID3 tag : NoCommand line compressor : C:\Program Files (x86)\Exact Audio Copy\Flac\flac.exeAdditional command line options : -8 -V -T "ARTIST=%artist%" -T "TITLE=%title%" -T "ALBUM=%albumtitle%" -T "DATE=%year%" -T "TRACKNUMBER=%tracknr%" -T "GENRE=%genre%" -T "PERFORMER=%albuminterpret%" -T "COMPOSER=%composer%" %haslyrics%--tag-from-file=LYRICS="%lyricsfile%"%haslyrics% -T "ALBUMARTIST=%albumartist%" -T "DISCNUMBER=%cdnumber%" -T "TOTALDISCS=%totalcds%" -T "TOTALTRACKS=%numtracks%" -T "COMMENT=%comment%" %source% -o %dest%
TOC of the extracted CD
Track | Start | Length | Start sector | End sector --------------------------------------------------------- 1 | 0:00.00 | 2:54.65 | 0 | 13114 2 | 2:54.65 | 4:56.37 | 13115 | 35351 3 | 7:51.27 | 3:47.48 | 35352 | 52424 4 | 11:39.00 | 2:44.62 | 52425 | 64786 5 | 14:23.62 | 3:05.53 | 64787 | 78714 6 | 17:29.40 | 3:25.50 | 78715 | 94139 7 | 20:55.15 | 3:14.55 | 94140 | 108744 8 | 24:09.70 | 3:04.07 | 108745 | 122551 9 | 27:14.02 | 3:31.00 | 122552 | 138376 10 | 30:45.02 | 4:19.15 | 138377 | 157816 11 | 35:04.17 | 3:28.65 | 157817 | 173481 12 | 38:33.07 | 3:15.43 | 173482 | 188149 13 | 41:48.50 | 6:24.22 | 188150 | 216971
Track 1
Filename G:\EAC\All Angels - All Angels\01 - Songbird.wav
Pre-gap length 0:00:02.00
Peak level 96.1 % Extraction speed 4.8 X Track quality 100.0 % Test CRC 4E510FA2 Copy CRC 4E510FA2 Accurately ripped (confidence 4) [3098C6DF] (AR v2) Copy OK
Track 2
Filename G:\EAC\All Angels - All Angels\02 - The Flower Duet.wav
Pre-gap length 0:00:01.40
Peak level 98.4 % Extraction speed 4.4 X Track quality 99.9 % Test CRC 7F2BDBC0 Copy CRC 7F2BDBC0 Accurately ripped (confidence 4) [AB33F15D] (AR v2) Copy OK
Track 3
Filename G:\EAC\All Angels - All Angels\03 - Salve Regina.wav
Peak level 97.6 % Extraction speed 6.1 X Track quality 100.0 % Test CRC D5E54767 Copy CRC D5E54767 Accurately ripped (confidence 4) [79895830] (AR v2) Copy OK
Track 4
Filename G:\EAC\All Angels - All Angels\04 - Steal Away.wav
Peak level 95.8 % Extraction speed 6.2 X Track quality 100.0 % Test CRC 16B8C82C Copy CRC 16B8C82C Accurately ripped (confidence 4) [7FF7B27F] (AR v2) Copy OK
Track 5
Filename G:\EAC\All Angels - All Angels\05 - The Windmills Of Your Mind.wav
Peak level 97.8 % Extraction speed 6.6 X Track quality 100.0 % Test CRC BA377429 Copy CRC BA377429 Accurately ripped (confidence 4) [23F55AE5] (AR v2) Copy OK
Track 6
Filename G:\EAC\All Angels - All Angels\06 - Barcarolle.wav
Peak level 98.4 % Extraction speed 7.0 X Track quality 100.0 % Test CRC 502088EE Copy CRC 502088EE Accurately ripped (confidence 4) [FEEC1767] (AR v2) Copy OK
Track 7
Filename G:\EAC\All Angels - All Angels\07 - Silent Night.wav
Peak level 93.4 % Extraction speed 7.3 X Track quality 100.0 % Test CRC C4C98E9C Copy CRC C4C98E9C Accurately ripped (confidence 4) [4078BDA1] (AR v2) Copy OK
Track 8
Filename G:\EAC\All Angels - All Angels\08 - Hosanna.wav
Peak level 97.8 % Extraction speed 7.4 X Track quality 100.0 % Test CRC B037A4C9 Copy CRC B037A4C9 Accurately ripped (confidence 4) [58C96F64] (AR v2) Copy OK
Track 9
Filename G:\EAC\All Angels - All Angels\09 - Ave Verum Corpus.wav
Peak level 97.6 % Extraction speed 7.9 X Track quality 100.0 % Test CRC D2CBA3CC Copy CRC D2CBA3CC Accurately ripped (confidence 4) [EBAC4D38] (AR v2) Copy OK
Track 10
Filename G:\EAC\All Angels - All Angels\10 - Angels.wav
Peak level 98.1 % Extraction speed 8.4 X Track quality 100.0 % Test CRC AB804CD1 Copy CRC AB804CD1 Accurately ripped (confidence 4) [CB1C93C0] (AR v2) Copy OK
Track 11
Filename G:\EAC\All Angels - All Angels\11 - Ave Maria.wav
Peak level 97.2 % Extraction speed 8.4 X Track quality 100.0 % Test CRC 7B5EB14D Copy CRC 7B5EB14D Accurately ripped (confidence 4) [4BEBC040] (AR v2) Copy OK
Track 12
Filename G:\EAC\All Angels - All Angels\12 - Pokarekare Ana.wav
Peak level 97.5 % Extraction speed 8.5 X Track quality 100.0 % Test CRC 4C226910 Copy CRC 4C226910 Accurately ripped (confidence 4) [569825BF] (AR v2) Copy OK
Track 13
Filename G:\EAC\All Angels - All Angels\13 - Agnus Dei.wav
Peak level 97.0 % Extraction speed 9.7 X Track quality 100.0 % Test CRC FE4ECE19 Copy CRC FE4ECE19 Accurately ripped (confidence 4) [FCC5F9C0] (AR v2) Copy OK
All tracks accurately ripped
No errors occurred
End of status report
---- CUETools DB Plugin V2.1.3
[CTDB TOCID: Gq6yEFpQ4ueKqMqDm.SCcOn4KLA-] found, Submit result: Gq6yEFpQ4ueKqMqDm.SCcOn4KLA- has been confirmed[c1432c3c] (2/2) Accurately ripped
==== Log checksum 64AFD559293C9DA6F5CE3E8C23B7ABE4A8B9465CB032FAE211EAEE307FECEE22 ====

Содержание индексной карты

REM GENRE ClassicalREM DATE 2006REM DISCID 9A0B4C0DREM COMMENT "ExactAudioCopy v1.0b3"PERFORMER "All Angels"TITLE "All Angels"FILE "01 - Songbird.wav" WAVE TRACK 01 AUDIO TITLE "Songbird" PERFORMER "All Angels" INDEX 01 00:00:00 TRACK 02 AUDIO TITLE "The Flower Duet" PERFORMER "All Angels" INDEX 00 02:53:25FILE "02 - The Flower Duet.wav" WAVE INDEX 01 00:00:00FILE "03 - Salve Regina.wav" WAVE TRACK 03 AUDIO TITLE "Salve Regina" PERFORMER "All Angels" INDEX 01 00:00:00FILE "04 - Steal Away.wav" WAVE TRACK 04 AUDIO TITLE "Steal Away" PERFORMER "All Angels" INDEX 01 00:00:00FILE "05 - The Windmills Of Your Mind.wav" WAVE TRACK 05 AUDIO TITLE "The Windmills Of Your Mind" PERFORMER "All Angels" INDEX 01 00:00:00FILE "06 - Barcarolle.wav" WAVE TRACK 06 AUDIO TITLE "Barcarolle" PERFORMER "All Angels" INDEX 01 00:00:00FILE "07 - Silent Night.wav" WAVE TRACK 07 AUDIO TITLE "Silent Night" PERFORMER "All Angels" INDEX 01 00:00:00FILE "08 - Hosanna.wav" WAVE TRACK 08 AUDIO TITLE "Hosanna" PERFORMER "All Angels" INDEX 01 00:00:00FILE "09 - Ave Verum Corpus.wav" WAVE TRACK 09 AUDIO TITLE "Ave Verum Corpus" PERFORMER "All Angels" INDEX 01 00:00:00FILE "10 - Angels.wav" WAVE TRACK 10 AUDIO TITLE "Angels" PERFORMER "All Angels" INDEX 01 00:00:00FILE "11 - Ave Maria.wav" WAVE TRACK 11 AUDIO TITLE "Ave Maria" PERFORMER "All Angels" INDEX 01 00:00:00FILE "12 - Pokarekare Ana.wav" WAVE TRACK 12 AUDIO TITLE "Pokarekare Ana" PERFORMER "All Angels" INDEX 01 00:00:00FILE "13 - Agnus Dei.wav" WAVE TRACK 13 AUDIO TITLE "Agnus Dei" PERFORMER "All Angels" INDEX 01 00:00:00

Лог auCDtect

-----------------------
DON'T MODIFY THIS FILE
-----------------------
PERFORMER: auCDtect Task Manager, ver. 1.6.0 RC1 build 1.6.0.1Copyright (c) 2008-2010 y-soft. All rights reservedhttp://y-soft.org
ANALYZER: auCDtect: CD records authenticity detector, version 0.8.2Copyright (c) 2004 Oleg Berngardt. All rights reserved.Copyright (c) 2004 Alexander Djourik. All rights reserved.
FILE: 06 - Barcarolle.flac Size: 19202069 Hash: 2EA139B22E60684371F44E1E67816BF9 Accuracy: -m0 Conclusion: CDDA 100% Signature: 8E9CC5CC2945D40BF2E914586081C132BFE9E500FILE: 10 - Angels.flac Size: 26983872 Hash: 522773439FF592E1BE3B8801FEE496E0 Accuracy: -m0 Conclusion: CDDA 100% Signature: 0FB35EADB730AC0D6AE7F1026F3C046FD76DC99BFILE: 12 - Pokarekare Ana.flac Size: 17785300 Hash: 15FC8DB2FBE88729F17332B1CD421498 Accuracy: -m0 Conclusion: CDDA 100% Signature: 7D0ECA572C5F83135EF5A6995761B4533DE14857FILE: 13 - Agnus Dei.flac Size: 29330884 Hash: 56DD3393B6A45C350B4F0D30E4707AC4 Accuracy: -m0 Conclusion: CDDA 100% Signature: 2EE637B1986924699153A248E48156DD7D2AB824FILE: 01 - Songbird.flac Size: 14520325 Hash: D28B165F37F3A083D99A2802506FEC68 Accuracy: -m0 Conclusion: CDDA 99% Signature: 01F0415687B61BD6F77A5B016AED7829CE276919FILE: 07 - Silent Night.flac Size: 17017376 Hash: 45EECC22CD142863F3EA43E3D684659B Accuracy: -m0 Conclusion: CDDA 100% Signature: 629FF7CE8F8C6F9C7136FA5E2B73E316C92A5B48FILE: 11 - Ave Maria.flac Size: 19022605 Hash: 2D80DAFF45420EA6F4FED5C4ECC15912 Accuracy: -m0 Conclusion: CDDA 100% Signature: B5D1EF8D74E779367D85308DC3B0D2DFC8B41CC6FILE: 09 - Ave Verum Corpus.flac Size: 20519109 Hash: 5578F724C199CB80BEC1FD8CA6120359 Accuracy: -m0 Conclusion: CDDA 100% Signature: 57AB127775E3246DA6E53DAB81BAF19F0BC28DE9FILE: 04 - Steal Away.flac Size: 14307424 Hash: 180866DB18D873A4E14FA75BFD2ECCBA Accuracy: -m0 Conclusion: CDDA 100% Signature: 6970F8209356C42A652C27FB7B708C79443E9586FILE: 03 - Salve Regina.flac Size: 22739319 Hash: 71C2ACC39B1BA2821B88F055B809C79D Accuracy: -m0 Conclusion: CDDA 100% Signature: 3B8FB332BC81577EC7C508766C93F1EC7CA0CA30FILE: 05 - The Windmills Of Your Mind.flac Size: 18014519 Hash: 9C9EB25B796B2D9603D47D9BA985BECA Accuracy: -m0 Conclusion: CDDA 100% Signature: E4BEFD0795B8EB1B99BF92390C5998E01427F785FILE: 08 - Hosanna.flac Size: 16816601 Hash: B94B1BA5F01DC254835EF468E2BF98CD Accuracy: -m0 Conclusion: CDDA 100% Signature: DC4AADFEF21C5E71275EE95B4C796C79E9BF5973FILE: 02 - The Flower Duet.flac Size: 26796011 Hash: 851518B792CF87DEBB19C83ED4CEA734 Accuracy: -m0 Conclusion: CDDA 100% Signature: 678AFD5A8DC735C426A586ED12054FB2F049582A

Скриншот спектра частот

-Discogs* | Wikipedia-Об исполнителеhttp://en.wikipedia.org/wiki/All_Angels
http://translate.google.ru/translate?hl=ru&sl=e...l%26channel%3Dsb
Цитата:Все Ангелы британский классический кроссовер группа, образованная в 2006 году, состоящий из Daisy Шут, Рэйчел Фабри, Мелани Нахле и Шарлотта Ричи . [1] стиль группы является классическим кроссовер музыка и близкое расположение гармония, с репертуаром, охватывающей классический, хоровое , оперу и поп включая Франц Шуберт 'ы Элленс dritter Gesang , Agnus Dei (хоровой организации Сэмюэл Барбер 'ы Адажио для струнных ) и Sancta Мария интермеццо от Пьетро Масканьи «с Сельская честь вместе с Flower Duet от Лео Делиба " Лакме и Баркарола из Жак Оффенбах 'ы Сказки Гофмана , плюс поп-песен, таких как Робби Уильямс ' Ангелов , Fleetwood Mac "с Songbird , Coldplay 'ов ученого , Истинных Цвета, Goodnight мой ангел (Billy Joel) муз Starlight и принц ' с Ничего сравнивает 2 U . Они также исполнила национальный гимн в Твикенхеме и в Англии против США футбольного матча в стадионе Уэмбли в летом 2008 года. [2]
Они записали свои первые три альбома с Universal, и есть более 1 миллиона продаж. Их одноименный дебютный альбом, Все Ангелы был выпущен в 2006 году, и их второй альбом, в рай был выпущен 26 ноября 2007 года третьего альбома Fly Away был выпущен в январе 2010 года Песни на этом альбоме включают Нора Джонс 'ы Come Away со мной , Send In The клоунов , Боб Дилан 'ы Blowin 'на ветру , Эрик Whitacre Sleep 'ы, и в дуэте с The Harlem Gospel Choir на Я Fly Away . Они продали более 1 млн альбомов на сегодняшний день. Все Ангелы управляются УТС группы . [3]
Они предприняли тур по Великобритании в поддержку Кэтрин Дженкинс летом 2009 года и завершила арены тур позже в том же году с Молодые голоса. Они были приглашены выступить в Лос-Анджелесе в рамках Inspiration Awards сбор средств на благотворительность рака молочной железы, который они были связаны с в течение последних четырех лет.

Об альбоме

http://en.wikipedia.org/wiki/All_Angels_%28album%29
All Angels is the debut album by English Classical crossover group All Angels, released in November 2006. The album sold 33,000 in its first week in the UK becoming the fastest selling classical debut in UK chart history[2] and reached the Top 10 on the UK Album Chart.[3] It was later certified Gold in December of the same year.[4]



Показать сообщения:    

Текущее время: 06-Дек 21:00

Часовой пояс: UTC + 3


Вы не можете начинать темы
Вы не можете отвечать на сообщения
Вы не можете редактировать свои сообщения
Вы не можете удалять свои сообщения
Вы не можете голосовать в опросах
Вы не можете прикреплять файлы к сообщениям
Вы не можете скачивать файлы