(Rock) VA - The Best Of Classics In Rock Arrangement - V.2 - 1995, FLAC (image+.cue) lossless


 

[Цитировать]

The Best Of Classics In Rock Arrangement - V.2
Жанр: Rock
Страна-производитель диска: Russia
Год издания диска: 1995
Издатель (лейбл): RC
Аудиокодек: FLAC
Тип рипа: image+.cue
Битрейт аудио: lossless
Продолжительность: 1:15:21 + 1:15:44
Источник: собственный рип
Наличие сканов в содержимом раздачи: нет

Картинки

Треклист

CD1
01 - The Ventures - Beethoven Five - Oh! (Beethoven)
02 - Richard Clauderman and RPO - Four Seasons: Spring (Vivaldi)
03 - Peter Weekers and LSO - Douce Melodie (Albinoni)
04 - Jan Holland - Melody In F (A.Rubinstein)
05 - Ekseption - Peace Planet (Bach)
06 - James Last - Morning (Grieg)
07 - Nicolas De Angelis - La Dance Du Sabre (Hachaturian)
08 - Saint-Preux - Concerto Pour Une Voix Saint-Preux
09 - Benny Anderson - Intermezzo Nr.1 B.Anderson
10 - Fausto Papetti - Concerto Nr.2 (S.Rahmaninov)
11 - Whitehall Mistery Orchestra - E-Dur Etude (Chopin)
12 - Vanessa Mae - Classical Gas (Bach/Vivaldi)
13 - Ray Conniff - My Serenade F.Shubert
14 - Klaas Jan Mulder - Symphonica (Bach)
15 - Richard Clauderman - Polovetsian Dances ("Prince Igor" A.Borodin)
16 - Ricky King - Aria (Bach)
17 - Paul Mauriat - Alla Figaro (Mozart)
18 - Pedro Alvarez - La Traviata (Verdy)
19 - Klaas Jan Mulder - Praeludium II (Bach)
20 - Yngwie Malmasteen - Crying Y.Malmsteen
21 - Emerson, Lake and Palmer - Romeo And Juliet Prokofiev
22 - Rainbow - Difficult To Cure (Bethoven's Ninth)
CD2
01 - Richard Clauderman - Capriccio Romantico N.Paganini
02 - Rondo Veneziano - Musica... Fantasia
03 - The Ventures - The William Tell Overture Rossini
04 - Jan Holland - Dreamlover List
05 - Nicolas De Angelis - Eine Kleine Nachtmusic Mozart
06 - Whitehall Mystery Orchestra - Die Moldau Smetana
07 - Stefan Nicolai - La Boheme
08 - Paul Mauriat - Czardas Monti
09 - Fransis Goya - Elvira Madigan Mozart
10 - Ekseption - A La Turka Mozart
11 - James Last - Cavalleria Rusticana Mascagni
12 - Stern and Rampai - Concerto In G Minor. Alegro Vivaldy
13 - Saint-Preux - Apres Demain (Ciciliano In G Minor) Bach
14 - Max Greger - Geschichten Aus Dem Wiener Wald Strauss
15 - Vanessa Mae - Hocus Pocus
16 - Ray Conniff - Nocturne In E Flat Major Chopin
17 - Yngwie Malmsteen - Trilogy Suite
18 - George Zamfir - Hungarian Dance Brams
19 - Pedro Alvarez - Pearl Fishes George Bizet
20 - Sky - Masquqrqde Hachaturian
21 - Jan Holland - Flight On The Bumble Bee R.-Korsakov
22 - Nini Rosso - La Canzone Di Solveig Grieg
23 - Omega - Finale

Лог создания рипа CD 1

Exact Audio Copy V0.99 prebeta 5 from 4. May 2009
Отчёт EAC об извлечении, выполненном 6. августа 2014, 19:57
Various Artists / The Best Of Classics In Rock Arrangement - V.2 CD1
Дисковод: ASUS DRW-24F1ST a Adapter: 0 ID: 1
Режим чтения : ДостоверностьИспользование точного потока : ДаОтключение кэша аудио : ДаИспользование указателей C2 : Нет
Коррекция смещения при чтении : 6Способность читать области Lead-in и Lead-out : НетЗаполнение пропущенных сэмплов тишиной : ДаУдаление блоков с тишиной в начале и конце : НетПри вычислениях CRC использовались нулевые сэмплы : ДаИнтерфейс : Встроенный Win32-интерфейс для Win NT/2000
Выходной формат : Внутренние WAV-операцииФормат сэмплов : 44.100 Гц; 16 бит; стерео
TOC извлечённого CD
Трек | Старт | Длительность | Начальный сектор | Конечный сектор --------------------------------------------------------------------- 1 | 0:00.00 | 3:51.56 | 0 | 17380 2 | 3:51.56 | 2:53.69 | 17381 | 30424 3 | 6:45.50 | 3:17.54 | 30425 | 45253 4 | 10:03.29 | 2:25.54 | 45254 | 56182 5 | 12:29.08 | 3:32.55 | 56183 | 72137 6 | 16:01.63 | 4:01.17 | 72138 | 90229 7 | 20:03.05 | 2:26.21 | 90230 | 101200 8 | 22:29.26 | 4:03.07 | 101201 | 119432 9 | 26:32.33 | 3:45.57 | 119433 | 136364 10 | 30:18.15 | 3:34.27 | 136365 | 152441 11 | 33:52.42 | 3:10.60 | 152442 | 166751 12 | 37:03.27 | 3:18.70 | 166752 | 181671 13 | 40:22.22 | 2:31.48 | 181672 | 193044 14 | 42:53.70 | 3:38.11 | 193045 | 209405 15 | 46:32.06 | 3:04.25 | 209406 | 223230 16 | 49:36.31 | 3:01.28 | 223231 | 236833 17 | 52:37.59 | 3:21.13 | 236834 | 251921 18 | 55:58.72 | 3:16.40 | 251922 | 266661 19 | 59:15.37 | 2:53.25 | 266662 | 279661 20 | 62:08.62 | 3:55.68 | 279662 | 297354 21 | 66:04.55 | 3:40.41 | 297355 | 313895 22 | 69:45.21 | 5:35.57 | 313896 | 339077
Характеристики диапазона извлечения и сообщения об ошибках
Выбранный диапазон
Имя файла E:\Temp\Various Artists - The Best Of Classics In Rock Arrangement - V.2 CD1.wav
Пиковый уровень 100.0 % Качество диапазона 99.9 % CRC копии 13A7DE4D Копирование... OK
Ошибок не произошло
AccurateRip: сводка
Трек 1 нет в базе данныхТрек 2 нет в базе данныхТрек 3 нет в базе данныхТрек 4 нет в базе данныхТрек 5 нет в базе данныхТрек 6 нет в базе данныхТрек 7 нет в базе данныхТрек 8 нет в базе данныхТрек 9 нет в базе данныхТрек 10 нет в базе данныхТрек 11 нет в базе данныхТрек 12 нет в базе данныхТрек 13 нет в базе данныхТрек 14 нет в базе данныхТрек 15 нет в базе данныхТрек 16 нет в базе данныхТрек 17 нет в базе данныхТрек 18 нет в базе данныхТрек 19 нет в базе данныхТрек 20 нет в базе данныхТрек 21 нет в базе данныхТрек 22 нет в базе данных
Ни одного трека нет в базе AccurateRip
Конец отчёта

Лог создания рипа CD 2

Exact Audio Copy V0.99 prebeta 5 from 4. May 2009
Отчёт EAC об извлечении, выполненном 6. августа 2014, 20:27
Various Artists / The Best Of Classic In Rock Arrangement - V.2 CD2
Дисковод: ASUS DRW-24F1ST a Adapter: 0 ID: 1
Режим чтения : ДостоверностьИспользование точного потока : ДаОтключение кэша аудио : ДаИспользование указателей C2 : Нет
Коррекция смещения при чтении : 6Способность читать области Lead-in и Lead-out : НетЗаполнение пропущенных сэмплов тишиной : ДаУдаление блоков с тишиной в начале и конце : НетПри вычислениях CRC использовались нулевые сэмплы : ДаИнтерфейс : Встроенный Win32-интерфейс для Win NT/2000
Выходной формат : Внутренние WAV-операцииФормат сэмплов : 44.100 Гц; 16 бит; стерео
TOC извлечённого CD
Трек | Старт | Длительность | Начальный сектор | Конечный сектор --------------------------------------------------------------------- 1 | 0:00.00 | 2:56.05 | 0 | 13204 2 | 2:56.05 | 2:51.71 | 13205 | 26100 3 | 5:48.01 | 3:13.18 | 26101 | 40593 4 | 9:01.19 | 2:54.64 | 40594 | 53707 5 | 11:56.08 | 3:55.56 | 53708 | 71388 6 | 15:51.64 | 3:54.33 | 71389 | 88971 7 | 19:46.22 | 3:53.00 | 88972 | 106446 8 | 23:39.22 | 6:37.32 | 106447 | 136253 9 | 30:16.54 | 3:40.24 | 136254 | 152777 10 | 33:57.03 | 2:29.01 | 152778 | 163953 11 | 36:26.04 | 4:02.48 | 163954 | 182151 12 | 40:28.52 | 3:11.18 | 182152 | 196494 13 | 43:39.70 | 3:03.43 | 196495 | 210262 14 | 46:43.38 | 3:36.19 | 210263 | 226481 15 | 50:19.57 | 3:14.07 | 226482 | 241038 16 | 53:33.64 | 2:44.30 | 241039 | 253368 17 | 56:18.19 | 3:49.43 | 253369 | 270586 18 | 60:07.62 | 2:39.34 | 270587 | 282545 19 | 62:47.21 | 3:04.44 | 282546 | 296389 20 | 65:51.65 | 3:22.04 | 296390 | 311543 21 | 69:13.69 | 1:15.49 | 311544 | 317217 22 | 70:29.43 | 2:30.46 | 317218 | 328513 23 | 73:00.14 | 2:43.34 | 328514 | 340772
Характеристики диапазона извлечения и сообщения об ошибках
Выбранный диапазон
Имя файла E:\Temp\Various Artists - The Best Of Classic In Rock Arrangement - V.2 CD2.wav
Пиковый уровень 100.0 % Качество диапазона 99.9 % CRC копии 67F9480E Копирование... OK
Ошибок не произошло
AccurateRip: сводка
Трек 1 нет в базе данныхТрек 2 нет в базе данныхТрек 3 нет в базе данныхТрек 4 нет в базе данныхТрек 5 нет в базе данныхТрек 6 нет в базе данныхТрек 7 нет в базе данныхТрек 8 нет в базе данныхТрек 9 нет в базе данныхТрек 10 нет в базе данныхТрек 11 нет в базе данныхТрек 12 нет в базе данныхТрек 13 нет в базе данныхТрек 14 нет в базе данныхТрек 15 нет в базе данныхТрек 16 нет в базе данныхТрек 17 нет в базе данныхТрек 18 нет в базе данныхТрек 19 нет в базе данныхТрек 20 нет в базе данныхТрек 21 нет в базе данныхТрек 22 нет в базе данныхТрек 23 нет в базе данных
Ни одного трека нет в базе AccurateRip
Конец отчёта

Содержание индексной карты (.CUE) CD 1 внедрен в image

REM GENRE RockREM DISCID 3E11A916REM COMMENT ExactAudioCopy v0.99pb5PERFORMER "Various Artists"TITLE "The Best Of Classics In Rock Arrangement - V.2 CD1"FILE "Various Artists - The Best Of Classics In Rock Arrangement - V.2 CD1.flac" WAVE TRACK 01 AUDIO TITLE "Beethoven Five - Oh! (Beethoven)" PERFORMER "The Ventures" INDEX 01 00:00:00 TRACK 02 AUDIO TITLE "Four Seasons: Spring (Vivaldi)" PERFORMER "Richard Clauderman and RPO" INDEX 00 03:49:56 INDEX 01 03:51:56 TRACK 03 AUDIO TITLE "Douce Melodie (Albinoni)" PERFORMER "Peter Weekers and LSO" INDEX 00 06:43:50 INDEX 01 06:45:50 TRACK 04 AUDIO TITLE "Melody In F (A.Rubinstein)" PERFORMER "Jan Holland" INDEX 00 10:01:29 INDEX 01 10:03:29 TRACK 05 AUDIO TITLE "Peace Planet (Bach)" PERFORMER "Ekseption" INDEX 00 12:27:08 INDEX 01 12:29:08 TRACK 06 AUDIO TITLE "Morning (Grieg)" PERFORMER "James Last" INDEX 00 15:59:63 INDEX 01 16:01:63 TRACK 07 AUDIO TITLE "La Dance Du Sabre (Hachaturian)" PERFORMER "Nicolas De Angelis" INDEX 00 20:01:05 INDEX 01 20:03:05 TRACK 08 AUDIO TITLE "Concerto Pour Une Voix" PERFORMER "Saint-Preux" INDEX 00 22:27:26 INDEX 01 22:29:26 TRACK 09 AUDIO TITLE "Intermezzo Nr.1" PERFORMER "Benny Anderson" INDEX 00 26:30:33 INDEX 01 26:32:33 TRACK 10 AUDIO TITLE "Concerto Nr.2 (S.Rahmaninov)" PERFORMER "Fausto Papetti" INDEX 00 30:16:15 INDEX 01 30:18:15 TRACK 11 AUDIO TITLE "E-Dur Etude (Chopin)" PERFORMER "Whitehall Mistery Orchestra" INDEX 00 33:50:42 INDEX 01 33:52:42 TRACK 12 AUDIO TITLE "Classical Gas (Bach/Vivaldi)" PERFORMER "Vanessa Mae" INDEX 00 37:01:27 INDEX 01 37:03:27 TRACK 13 AUDIO TITLE "My Serenade" PERFORMER "Ray Conniff" INDEX 00 40:20:22 INDEX 01 40:22:22 TRACK 14 AUDIO TITLE "Symphonica (Bach)" PERFORMER "Klaas Jan Mulder" INDEX 00 42:51:70 INDEX 01 42:53:70 TRACK 15 AUDIO TITLE "Polovetsian Dances ('Prince Igor' A.Borodin)" PERFORMER "Richard Clauderman" INDEX 00 46:30:06 INDEX 01 46:32:06 TRACK 16 AUDIO TITLE "Aria (Bach)" PERFORMER "Ricky King" INDEX 00 49:34:31 INDEX 01 49:36:31 TRACK 17 AUDIO TITLE "Alla Figaro (Mozart)" PERFORMER "Paul Mauriat" INDEX 00 52:35:59 INDEX 01 52:37:59 TRACK 18 AUDIO TITLE "La Traviata (Verdy)" PERFORMER "Pedro Alvarez" INDEX 00 55:56:72 INDEX 01 55:58:72 TRACK 19 AUDIO TITLE "Praeludium II (Bach)" PERFORMER "Klaas Jan Mulder" INDEX 00 59:13:37 INDEX 01 59:15:37 TRACK 20 AUDIO TITLE "Crying " PERFORMER "Yngwie Malmasteen" INDEX 00 62:06:62 INDEX 01 62:08:62 TRACK 21 AUDIO TITLE "Romeo And Juliet" PERFORMER "Emerson, Lake and Palmer" INDEX 00 66:02:55 INDEX 01 66:04:55 TRACK 22 AUDIO TITLE "Difficult To Cure (Bethoven's Ninth)" PERFORMER "Rainbow" INDEX 00 69:43:21 INDEX 01 69:45:21

Содержание индексной карты (.CUE) CD 2 внедрен в image

REM GENRE RockREM DISCID 4011BF17REM COMMENT ExactAudioCopy v0.99pb5PERFORMER "Various Artists"TITLE "The Best Of Classics In Rock Arrangement - V.2 CD2"FILE "Various Artists - The Best Of Classics In Rock Arrangement - V.2 CD2.flac" WAVE TRACK 01 AUDIO TITLE "Capriccio Romantico" PERFORMER "Richard Clauderman" INDEX 01 00:00:00 TRACK 02 AUDIO TITLE "Musica... Fantasia" PERFORMER "Rondo Veneziano" INDEX 00 02:54:05 INDEX 01 02:56:05 TRACK 03 AUDIO TITLE "The William Tell Overture" PERFORMER "The Ventures" INDEX 00 05:46:01 INDEX 01 05:48:01 TRACK 04 AUDIO TITLE "Dreamlover" PERFORMER "Jan Holland" INDEX 00 08:59:19 INDEX 01 09:01:19 TRACK 05 AUDIO TITLE "Eine Kleine Nachtmusic" PERFORMER "Nicolas De Angelis" INDEX 00 11:54:08 INDEX 01 11:56:08 TRACK 06 AUDIO TITLE "Die Moldau" PERFORMER "Whitehall Mystery Orchestra" INDEX 00 15:49:64 INDEX 01 15:51:64 TRACK 07 AUDIO TITLE "La Boheme" PERFORMER "Stefan Nicolai" INDEX 00 19:44:22 INDEX 01 19:46:22 TRACK 08 AUDIO TITLE "Czardas" PERFORMER "Paul Mauriat" INDEX 00 23:37:22 INDEX 01 23:39:22 TRACK 09 AUDIO TITLE "Elvira Madigan" PERFORMER "Fransis Goya" INDEX 00 30:14:54 INDEX 01 30:16:54 TRACK 10 AUDIO TITLE "A La Turka" PERFORMER "Ekseption" INDEX 00 33:55:03 INDEX 01 33:57:03 TRACK 11 AUDIO TITLE "Cavalleria Rusticana" PERFORMER "James Last" INDEX 00 36:24:04 INDEX 01 36:26:04 TRACK 12 AUDIO TITLE "Concerto In G Minor. Alegro" PERFORMER "Stern and Rampai" INDEX 00 40:26:52 INDEX 01 40:28:52 TRACK 13 AUDIO TITLE "Apres Demain (Ciciliano In G Minor)" PERFORMER "Saint-Preux" INDEX 00 43:37:70 INDEX 01 43:39:70 TRACK 14 AUDIO TITLE "Geschichten Aus Dem Wiener Wald" PERFORMER "Max Greger" INDEX 00 46:41:38 INDEX 01 46:43:38 TRACK 15 AUDIO TITLE "Hocus Pocus" PERFORMER "Vanessa Mae" INDEX 00 50:17:57 INDEX 01 50:19:57 TRACK 16 AUDIO TITLE "Nocturne In E Flat Major" PERFORMER "Ray Conniff" INDEX 00 53:31:64 INDEX 01 53:33:64 TRACK 17 AUDIO TITLE "Trilogy Suite" PERFORMER "Yngwie Malmsteen" INDEX 00 56:16:19 INDEX 01 56:18:19 TRACK 18 AUDIO TITLE "Hungarian Dance" PERFORMER "George Zamfir" INDEX 00 60:05:62 INDEX 01 60:07:62 TRACK 19 AUDIO TITLE "Pearl Fishes" PERFORMER "Pedro Alvarez" INDEX 00 62:45:21 INDEX 01 62:47:21 TRACK 20 AUDIO TITLE "Masquqrqde" PERFORMER "Sky" INDEX 00 65:49:65 INDEX 01 65:51:65 TRACK 21 AUDIO TITLE "Flight On The Bumble Bee" PERFORMER "Jan Holland" INDEX 00 69:11:69 INDEX 01 69:13:69 TRACK 22 AUDIO TITLE "La Canzone Di Solveig" PERFORMER "Nini Rosso" INDEX 00 70:27:43 INDEX 01 70:29:43 TRACK 23 AUDIO TITLE "Finale" PERFORMER "Omega" INDEX 00 72:58:14 INDEX 01 73:00:14

Скриншот спектра частот




Показать сообщения:    

Текущее время: 05-Дек 11:30

Часовой пояс: UTC + 3


Вы не можете начинать темы
Вы не можете отвечать на сообщения
Вы не можете редактировать свои сообщения
Вы не можете удалять свои сообщения
Вы не можете голосовать в опросах
Вы не можете прикреплять файлы к сообщениям
Вы не можете скачивать файлы