(Classical) Vitamin String Quartet - The String Quartet Tribute To 30 Seconds To Mars - 2009, FLAC (tracks+.cue) lossless


 

[Цитировать]

Vitamin String Quartet / The String Quartet Tribute To 30 Seconds To Mars
Жанр: Classical
Год издания диска: 2009
Издатель (лейбл): Vitamin Records
Аудиокодек: FLAC
Тип рипа: tracks+.cue
Битрейт аудио: lossless
Продолжительность: 00:45:51
Источник: скачано с
сайт-источник/ник/другое: what.cd (edwardhallv)
Наличие сканов в содержимом раздачи: нет
Треклист:
01 Echelon
02 The Kill
03 Edge Of The Earth
04 Attack
05 A Beautiful Lie
06 From Yesterday
07 Welcome To The Universe
08 A Modern Myth
09 The Fantasy
10 Capricorn (A Brand New Name)
11 Here, There Be Monsters (Original Composition Inspired By The Music Of 30 Seconds To Mars)

Лог создания рипа

X Lossless Decoder version 20130602 (143.2)
XLD extraction logfile from 2014-06-19 04:51:33 -0400
Vitamin String Quartet / The String Quartet Tribute To 30 Seconds To Mars
Used drive : MATSHITA DVD-R UJ-898 (revision HC10)Media type : Pressed CD
Ripper mode : XLD Secure RipperDisable audio cache : OK for the drive with a cache less than 1375KiBMake use of C2 pointers : NORead offset correction : 102Max retry count : 100Gap status : Analyzed, Appended
TOC of the extracted CD Track | Start | Length | Start sector | End sector --------------------------------------------------------- 1 | 00:00:00 | 05:51:53 | 0 | 26377 2 | 05:51:53 | 04:00:72 | 26378 | 44449 3 | 09:52:50 | 04:38:20 | 44450 | 65319 4 | 14:30:70 | 03:12:11 | 65320 | 79730 5 | 17:43:06 | 04:05:57 | 79731 | 98162 6 | 21:48:63 | 04:08:38 | 98163 | 116800 7 | 25:57:26 | 02:45:35 | 116801 | 129210 8 | 28:42:61 | 03:00:21 | 129211 | 142731 9 | 31:43:07 | 04:29:58 | 142732 | 162964 10 | 36:12:65 | 03:52:73 | 162965 | 180437 11 | 40:05:63 | 05:51:03 | 180438 | 206765
AccurateRip Summary (DiscID: 00131e5b-00a2c243-8d0ac40b) Track 01 : OK (v1, confidence 1/1) Track 02 : OK (v1, confidence 1/1) Track 03 : OK (v1, confidence 1/1) Track 04 : OK (v1, confidence 1/1) Track 05 : OK (v1, confidence 1/1) Track 06 : OK (v1, confidence 1/1) Track 07 : OK (v1, confidence 1/1) Track 08 : OK (v1, confidence 1/1) Track 09 : OK (v1, confidence 1/1) Track 10 : OK (v1, confidence 1/1) Track 11 : OK (v1, confidence 1/1) ->All tracks accurately ripped.
All Tracks Album gain : -5.58 dB Peak : 1.000000 Statistics Read error : 0 Jitter error (maybe fixed) : 0 Retry sector count : 0 Damaged sector count : 0
Track 01 Filename : /Users/edchallv/Downloads/Vitamin String Quartet - The String Quartet Tribute To 30 Seconds To Mars (2008) [FLAC]/01 Echelon.flac Pre-gap length : 00:02:00
Track gain : -5.90 dB Peak : 1.000000 CRC32 hash (test run) : 072B361F CRC32 hash : 072B361F CRC32 hash (skip zero) : 2CCBA6EA AccurateRip v1 signature : 378CE53B AccurateRip v2 signature : 7414F002 ->Accurately ripped (v1, confidence 1/1) Statistics Read error : 0 Jitter error (maybe fixed) : 0 Retry sector count : 0 Damaged sector count : 0
Track 02 Filename : /Users/edchallv/Downloads/Vitamin String Quartet - The String Quartet Tribute To 30 Seconds To Mars (2008) [FLAC]/02 The Kill.flac
Track gain : -5.13 dB Peak : 1.000000 CRC32 hash (test run) : 79BA295E CRC32 hash : 79BA295E CRC32 hash (skip zero) : 2E804692 AccurateRip v1 signature : 2B46DC1D AccurateRip v2 signature : 9A409A47 ->Accurately ripped (v1, confidence 1/1) Statistics Read error : 0 Jitter error (maybe fixed) : 0 Retry sector count : 0 Damaged sector count : 0
Track 03 Filename : /Users/edchallv/Downloads/Vitamin String Quartet - The String Quartet Tribute To 30 Seconds To Mars (2008) [FLAC]/03 Edge Of The Earth.flac
Track gain : -5.88 dB Peak : 1.000000 CRC32 hash (test run) : 59D85714 CRC32 hash : 59D85714 CRC32 hash (skip zero) : D9634EAA AccurateRip v1 signature : 4F4FE528 AccurateRip v2 signature : 657C631B ->Accurately ripped (v1, confidence 1/1) Statistics Read error : 0 Jitter error (maybe fixed) : 0 Retry sector count : 0 Damaged sector count : 0
Track 04 Filename : /Users/edchallv/Downloads/Vitamin String Quartet - The String Quartet Tribute To 30 Seconds To Mars (2008) [FLAC]/04 Attack.flac
Track gain : -5.85 dB Peak : 1.000000 CRC32 hash (test run) : 49C77846 CRC32 hash : 49C77846 CRC32 hash (skip zero) : 278DC4AD AccurateRip v1 signature : EF3E4336 AccurateRip v2 signature : 26646938 ->Accurately ripped (v1, confidence 1/1) Statistics Read error : 0 Jitter error (maybe fixed) : 0 Retry sector count : 0 Damaged sector count : 0
Track 05 Filename : /Users/edchallv/Downloads/Vitamin String Quartet - The String Quartet Tribute To 30 Seconds To Mars (2008) [FLAC]/05 A Beautiful Lie.flac
Track gain : -5.35 dB Peak : 1.000000 CRC32 hash (test run) : 61C6AFD1 CRC32 hash : 61C6AFD1 CRC32 hash (skip zero) : 663F0C37 AccurateRip v1 signature : B92AA59F AccurateRip v2 signature : 760A3966 ->Accurately ripped (v1, confidence 1/1) Statistics Read error : 0 Jitter error (maybe fixed) : 0 Retry sector count : 0 Damaged sector count : 0
Track 06 Filename : /Users/edchallv/Downloads/Vitamin String Quartet - The String Quartet Tribute To 30 Seconds To Mars (2008) [FLAC]/06 From Yesterday.flac
Track gain : -5.81 dB Peak : 1.000000 CRC32 hash (test run) : 54F37849 CRC32 hash : 54F37849 CRC32 hash (skip zero) : CD6944BF AccurateRip v1 signature : 46B776BB AccurateRip v2 signature : 41A8FEEE ->Accurately ripped (v1, confidence 1/1) Statistics Read error : 0 Jitter error (maybe fixed) : 0 Retry sector count : 0 Damaged sector count : 0
Track 07 Filename : /Users/edchallv/Downloads/Vitamin String Quartet - The String Quartet Tribute To 30 Seconds To Mars (2008) [FLAC]/07 Welcome To The Universe.flac
Track gain : -5.49 dB Peak : 1.000000 CRC32 hash (test run) : B0E2BD23 CRC32 hash : B0E2BD23 CRC32 hash (skip zero) : 2DB6522F AccurateRip v1 signature : 4BAB9259 AccurateRip v2 signature : 714478FF ->Accurately ripped (v1, confidence 1/1) Statistics Read error : 0 Jitter error (maybe fixed) : 0 Retry sector count : 0 Damaged sector count : 0
Track 08 Filename : /Users/edchallv/Downloads/Vitamin String Quartet - The String Quartet Tribute To 30 Seconds To Mars (2008) [FLAC]/08 A Modern Myth.flac
Track gain : -4.52 dB Peak : 1.000000 CRC32 hash (test run) : CB4FF945 CRC32 hash : CB4FF945 CRC32 hash (skip zero) : 4C8019DA AccurateRip v1 signature : FB2EDF9C AccurateRip v2 signature : 2F83CBAA ->Accurately ripped (v1, confidence 1/1) Statistics Read error : 0 Jitter error (maybe fixed) : 0 Retry sector count : 0 Damaged sector count : 0
Track 09 Filename : /Users/edchallv/Downloads/Vitamin String Quartet - The String Quartet Tribute To 30 Seconds To Mars (2008) [FLAC]/09 The Fantasy.flac
Track gain : -5.87 dB Peak : 1.000000 CRC32 hash (test run) : FCFBFE85 CRC32 hash : FCFBFE85 CRC32 hash (skip zero) : BB649144 AccurateRip v1 signature : C2C4926F AccurateRip v2 signature : 234B26C3 ->Accurately ripped (v1, confidence 1/1) Statistics Read error : 0 Jitter error (maybe fixed) : 0 Retry sector count : 0 Damaged sector count : 0
Track 10 Filename : /Users/edchallv/Downloads/Vitamin String Quartet - The String Quartet Tribute To 30 Seconds To Mars (2008) [FLAC]/10 Capricorn (A Brand New Name).flac
Track gain : -5.73 dB Peak : 1.000000 CRC32 hash (test run) : C4E30B59 CRC32 hash : C4E30B59 CRC32 hash (skip zero) : A3898C14 AccurateRip v1 signature : EB7A6756 AccurateRip v2 signature : EC54F4DA ->Accurately ripped (v1, confidence 1/1) Statistics Read error : 0 Jitter error (maybe fixed) : 0 Retry sector count : 0 Damaged sector count : 0
Track 11 Filename : /Users/edchallv/Downloads/Vitamin String Quartet - The String Quartet Tribute To 30 Seconds To Mars (2008) [FLAC]/11 Here, There Be Monsters (Original Composition Inspired By The Music Of 30 Seconds To Mars).flac
Track gain : -4.13 dB Peak : 1.000000 CRC32 hash (test run) : 645275C9 CRC32 hash : 645275C9 CRC32 hash (skip zero) : 3CE03053 AccurateRip v1 signature : 687F4461 AccurateRip v2 signature : 06E3384F ->Accurately ripped (v1, confidence 1/1) Statistics Read error : 0 Jitter error (maybe fixed) : 0 Retry sector count : 0 Damaged sector count : 0
No errors occurred
End of status report
-----BEGIN XLD SIGNATURE-----aFyRtDJ6bA.urEoADF0bd_LQLIByGOuy657Ow1KmzmbicsSA9QvH0pd_nUr01pOboZXuyjt399UkzlZ_5evqepudPU.tt8p_F7gVXK4-----END XLD SIGNATURE-----

Содержание индексной карты (.CUE)

TITLE "The String Quartet Tribute To 30 Seconds To Mars"PERFORMER "Vitamin String Quartet"REM GENRE "Classical"REM DATE "2008"REM DISCNUMBER 1REM TOTALDISCS 1REM DISCID 8D0AC40BREM REPLAYGAIN_ALBUM_GAIN -5.58 dBREM REPLAYGAIN_ALBUM_PEAK 1.000000FILE "01 Echelon.flac" WAVE TRACK 01 AUDIO TITLE "Echelon" REM REPLAYGAIN_TRACK_GAIN -5.90 dB REM REPLAYGAIN_TRACK_PEAK 1.000000 INDEX 01 00:00:00FILE "02 The Kill.flac" WAVE TRACK 02 AUDIO TITLE "The Kill" REM REPLAYGAIN_TRACK_GAIN -5.13 dB REM REPLAYGAIN_TRACK_PEAK 1.000000 INDEX 01 00:00:00FILE "03 Edge Of The Earth.flac" WAVE TRACK 03 AUDIO TITLE "Edge Of The Earth" REM REPLAYGAIN_TRACK_GAIN -5.88 dB REM REPLAYGAIN_TRACK_PEAK 1.000000 INDEX 01 00:00:00FILE "04 Attack.flac" WAVE TRACK 04 AUDIO TITLE "Attack" REM REPLAYGAIN_TRACK_GAIN -5.85 dB REM REPLAYGAIN_TRACK_PEAK 1.000000 INDEX 01 00:00:00FILE "05 A Beautiful Lie.flac" WAVE TRACK 05 AUDIO TITLE "A Beautiful Lie" REM REPLAYGAIN_TRACK_GAIN -5.35 dB REM REPLAYGAIN_TRACK_PEAK 1.000000 INDEX 01 00:00:00FILE "06 From Yesterday.flac" WAVE TRACK 06 AUDIO TITLE "From Yesterday" REM REPLAYGAIN_TRACK_GAIN -5.81 dB REM REPLAYGAIN_TRACK_PEAK 1.000000 INDEX 01 00:00:00FILE "07 Welcome To The Universe.flac" WAVE TRACK 07 AUDIO TITLE "Welcome To The Universe" REM REPLAYGAIN_TRACK_GAIN -5.49 dB REM REPLAYGAIN_TRACK_PEAK 1.000000 INDEX 01 00:00:00FILE "08 A Modern Myth.flac" WAVE TRACK 08 AUDIO TITLE "A Modern Myth" REM REPLAYGAIN_TRACK_GAIN -4.52 dB REM REPLAYGAIN_TRACK_PEAK 1.000000 INDEX 01 00:00:00FILE "09 The Fantasy.flac" WAVE TRACK 09 AUDIO TITLE "The Fantasy" REM REPLAYGAIN_TRACK_GAIN -5.87 dB REM REPLAYGAIN_TRACK_PEAK 1.000000 INDEX 01 00:00:00FILE "10 Capricorn (A Brand New Name).flac" WAVE TRACK 10 AUDIO TITLE "Capricorn (A Brand New Name)" REM REPLAYGAIN_TRACK_GAIN -5.73 dB REM REPLAYGAIN_TRACK_PEAK 1.000000 INDEX 01 00:00:00FILE "11 Here, There Be Monsters (Original Composition Inspired By The Music Of 30 Seconds To Mars).flac" WAVE TRACK 11 AUDIO TITLE "Here, There Be Monsters (Original Composition Inspired By The Music Of 30 Seconds To Mars)" REM REPLAYGAIN_TRACK_GAIN -4.13 dB REM REPLAYGAIN_TRACK_PEAK 1.000000 INDEX 01 00:00:00

Скриншот спектра частот




Показать сообщения:    

Текущее время: 07-Дек 21:21

Часовой пояс: UTC + 3


Вы не можете начинать темы
Вы не можете отвечать на сообщения
Вы не можете редактировать свои сообщения
Вы не можете удалять свои сообщения
Вы не можете голосовать в опросах
Вы не можете прикреплять файлы к сообщениям
Вы не можете скачивать файлы