(Classical) [CD] The String Quartet - Tribute to Evanescence - 2003, FLAC (tracks+.cue), lossless


 

[Цитировать]

The String Quartet / Tribute to Evanescence
Жанр: Classical
Носитель: CD
Год издания: 2003
Аудиокодек: FLAC (*.flac)
Тип рипа: tracks+.cue
Битрейт аудио: lossless
Продолжительность: 00:39:49
Наличие сканов в содержимом раздачи: нет
Треклист:
1 Going Under 3:28
2 Bring Me to Life 4:11
3 Tourniquet 4:17
4 My Immortal 4:31
5 Imaginary 4:09
6 Haunted 3:07
7 Hello 3:46
8 Taking Over Me 3:46
9 Whisper 4:54
10 Undertowe 3:40

Лог создания рипа

EAC extraction logfile from 21. April 2007, 23:51 for CDEvanescence / The String Quartet Tribute to Evanescence
Used drive : TOSHIBA CD/DVDW SDR6572M Adapter: 0 ID: 0Read mode : Secure with NO C2, accurate stream, disable cacheRead offset correction : 116Overread into Lead-In and Lead-Out : Yes
Used output format : C:\Program Files\FLAC\flac.exe (User Defined Encoder) 320 kBit/s Additional command line options : -8 -V -T "artist=%a" -T "title=%t" -T "album=%g" -T "date=%y" -T "tracknumber=%n" -T "genre=%m" -T comment="%e" -T "comment=EAC (Secure Mode)" %s
Other options : Fill up missing offset samples with silence : Yes Delete leading and trailing silent blocks : No Native Win32 interface for Win NT & 2000
Track 1 Filename C:\Encoding\Audio\Evanescence\The String Quartet Tribute to Evanescence\01 - Going Under.wav
Peak level 97.8 % Track quality 100.0 % Test CRC 5E654143 Copy CRC 5E654143 Copy OK
Track 2 Filename C:\Encoding\Audio\Evanescence\The String Quartet Tribute to Evanescence\02 - Bring Me to Life.wav
Peak level 98.3 % Track quality 100.0 % Test CRC 568A101C Copy CRC 568A101C Copy OK
Track 3 Filename C:\Encoding\Audio\Evanescence\The String Quartet Tribute to Evanescence\03 - Tourniquet.wav
Peak level 97.5 % Track quality 100.0 % Test CRC CC8653ED Copy CRC CC8653ED Copy OK
Track 4 Filename C:\Encoding\Audio\Evanescence\The String Quartet Tribute to Evanescence\04 - My Immortal.wav
Peak level 97.7 % Track quality 100.0 % Test CRC 2D389423 Copy CRC 2D389423 Copy OK
Track 5 Filename C:\Encoding\Audio\Evanescence\The String Quartet Tribute to Evanescence\05 - Imaginary.wav
Peak level 96.9 % Track quality 100.0 % Test CRC 00E5EFB0 Copy CRC 00E5EFB0 Copy OK
Track 6 Filename C:\Encoding\Audio\Evanescence\The String Quartet Tribute to Evanescence\06 - Haunted.wav
Peak level 97.7 % Track quality 99.9 % Test CRC 220B66F2 Copy CRC 220B66F2 Copy OK
Track 7 Filename C:\Encoding\Audio\Evanescence\The String Quartet Tribute to Evanescence\07 - Hello.wav
Peak level 97.7 % Track quality 100.0 % Test CRC B4D33DDA Copy CRC B4D33DDA Copy OK
Track 8 Filename C:\Encoding\Audio\Evanescence\The String Quartet Tribute to Evanescence\08 - Taking Over Me.wav
Peak level 97.7 % Track quality 100.0 % Test CRC 2984AE0E Copy CRC 2984AE0E Copy OK
Track 9 Filename C:\Encoding\Audio\Evanescence\The String Quartet Tribute to Evanescence\09 - Whisper.wav
Peak level 97.8 % Track quality 100.0 % Test CRC 2D1DB658 Copy CRC 2D1DB658 Copy OK
Track 10 Filename C:\Encoding\Audio\Evanescence\The String Quartet Tribute to Evanescence\10 - Undertowe (Original Track).wav
Peak level 97.8 % Track quality 99.9 % Test CRC 7F365244 Copy CRC 7F365244 Copy OK
No errors occured
End of status report

Содержание индексной карты (.CUE)

REM GENRE AcousticREM DATE 2003REM DISCID 81095B0AREM COMMENT "ExactAudioCopy v0.95b4"PERFORMER "Evanescence"TITLE "The String Quartet Tribute to Evanescence"FILE "Evanescence\The String Quartet Tribute to Evanescence\01 - Going Under.wav" WAVE TRACK 01 AUDIO TITLE "Going Under" PERFORMER "Evanescence" INDEX 01 00:00:00 TRACK 02 AUDIO TITLE "Bring Me to Life" PERFORMER "Evanescence" INDEX 00 03:26:62FILE "Evanescence\The String Quartet Tribute to Evanescence\02 - Bring Me to Life.wav" WAVE INDEX 01 00:00:00 TRACK 03 AUDIO TITLE "Tourniquet" PERFORMER "Evanescence" INDEX 00 04:08:42FILE "Evanescence\The String Quartet Tribute to Evanescence\03 - Tourniquet.wav" WAVE INDEX 01 00:00:00 TRACK 04 AUDIO TITLE "My Immortal" PERFORMER "Evanescence" INDEX 00 04:14:53FILE "Evanescence\The String Quartet Tribute to Evanescence\04 - My Immortal.wav" WAVE INDEX 01 00:00:00 TRACK 05 AUDIO TITLE "Imaginary" PERFORMER "Evanescence" INDEX 00 04:29:19FILE "Evanescence\The String Quartet Tribute to Evanescence\05 - Imaginary.wav" WAVE INDEX 01 00:00:00 TRACK 06 AUDIO TITLE "Haunted" PERFORMER "Evanescence" INDEX 00 04:08:17FILE "Evanescence\The String Quartet Tribute to Evanescence\06 - Haunted.wav" WAVE INDEX 01 00:00:00 TRACK 07 AUDIO TITLE "Hello" PERFORMER "Evanescence" INDEX 00 03:06:08FILE "Evanescence\The String Quartet Tribute to Evanescence\07 - Hello.wav" WAVE INDEX 01 00:00:00 TRACK 08 AUDIO TITLE "Taking Over Me" PERFORMER "Evanescence" INDEX 00 03:43:49FILE "Evanescence\The String Quartet Tribute to Evanescence\08 - Taking Over Me.wav" WAVE INDEX 01 00:00:00 TRACK 09 AUDIO TITLE "Whisper" PERFORMER "Evanescence" INDEX 00 03:44:71FILE "Evanescence\The String Quartet Tribute to Evanescence\09 - Whisper.wav" WAVE INDEX 01 00:00:00 TRACK 10 AUDIO TITLE "Undertowe (Original Track)" PERFORMER "Evanescence" INDEX 00 04:52:52FILE "Evanescence\The String Quartet Tribute to Evanescence\10 - Undertowe (Original Track).wav" WAVE INDEX 01 00:00:00

Лог проверки качества

Track Ripping Status [Disc ID: 000f0bf8-81095b0a]
1 Accurately Ripped (confidence 3) [9c44138c] 2 Accurately Ripped (confidence 3) [494399b1] 3 Accurately Ripped (confidence 3) [9635a8a8] 4 Accurately Ripped (confidence 3) [698bda83] 5 Accurately Ripped (confidence 3) [e1f11840] 6 Accurately Ripped (confidence 3) [90808051] 7 Accurately Ripped (confidence 3) [0bed53d4] 8 Accurately Ripped (confidence 3) [e8d0e810] 9 Accurately Ripped (confidence 3) [896a609c] 10 Accurately Ripped (confidence 2) [373124c0]
_______________________
All Tracks Accurately Ripp



Показать сообщения:    

Текущее время: 08-Дек 10:51

Часовой пояс: UTC + 3


Вы не можете начинать темы
Вы не можете отвечать на сообщения
Вы не можете редактировать свои сообщения
Вы не можете удалять свои сообщения
Вы не можете голосовать в опросах
Вы не можете прикреплять файлы к сообщениям
Вы не можете скачивать файлы