(Classical, Classical Rock, Symphonic Rock) The London Symphony Orchestra - Plays The Music Of The Rolling Stones - 1994, FLAC (image+.cue) lossless


 

[Цитировать]

The London Symphony Orchestra Plays The Music Of The Rolling Stones Жанр: Classical, Classical Rock, Symphonic Rock
Страна-производитель диска: Великобритания
Год издания диска: 1994
Страна: Великобритания
Аудиокодек: FLAC
Тип рипа: image+.cue
Битрейт аудио: lossless
Продолжительность: 00:54:56
Источник: собственный рип
Наличие сканов в содержимом раздачи: да Хотя сегодня вряд ли найдется такая легендарная рок-группа, композиции которой еще ни разу не подвергались симфонической обработке, наследие The Rolling Stones всегда представляло особый интерес для музыкантов, воспитанных "в культуре классики". Думается, дело тут даже не в "подлинном симфонизме", достичь которого (разными средствами) удавалось и другим выдающимся мега-бэндам, а в особом мелодическом строе сочинений роллингов, во многом созвучном классической традиции и дающем богатый материал для оркестровой аранжировки.
На трекере можно найти несколько таких "оклассиченных" интерпретаций, одну 1992 года от Мюнхенского филармонического оркестра ("The Munich Philharmonic Orchestra - Plays The Rolling Stones Classic") и две 1994 года от London Symphony Orchestra ("Symphonic Music of the Rolling Stones" под лейблом RCA Victor и "London Symphony Orchestra Plays the Music of the Rolling Stones" под лейблом Essex). Впрочем, последний альбом до сего момента был представлен в весьма скабрезном качестве (mp3 160kbps с дефектами воспроизведения). И кажется, я догадываюсь откуда он был позаимствован. Во второй половине девяностых у нас то и дело появлялись самопальные мультимедийные CD-сборники музыки, и на одном таком диске, посвященном The Rolling Stones, фигурировало данное издание. Отсюда и изуверское сжатие, реально искажающее звучание. А главное — каждая запись там прыгала, словно диск писался с заезженной пластинки. С тех былинных времен минуло уже два десятка лет, а нового рипа так и не появилось (нет его и на вате). Что странно, поскольку альбом весьма и весьма хорош.
Чем же хорош "London Symphony Orchestra Plays the Music of the Rolling Stones"? Если кратко, то выбором композиций, качеством аранжировок, взвешенной мягкостью исполнения и общей гармоничностью звучания. А если совсем кратко, то этот диск слушается на одном дыхании. По существу, он не имеет ничего общего с "гала-концертом" от RCA Victor, хотя и был записан в том же году с участием того же коллектива. Назвать эссекский альбом "бюджетной версией" (а именно так отозвался о нем рецензент с AllMusic) может лишь тот, кому не знакомы слова "камерный" или "филармонический". У "мюнхенского проекта" также есть свои несомненные плюсы ("культуры классики" и симфонического драйва немцам, разумеется, не занимать), так что эти два альбома прекрасно дополняют друг друга — где-то 50 на 50, если выбрать из них "лучшие хиты".

Треклист

1 (I Can't Get No) Satisfaction 2 Tumbling Dice 3 Lady Jane 4 Let's Spend The Night Together 5 Get Off Of My Cloud 6 Angie 7 Jumping Jack Flash8 19th Nervous Breakdown 9 She's A Rainbow 10 Time Is On My Side 11 Under My Thumb 12 Brown Sugar 13 As Tears Go By 14 Wild Horses

Особенности релиза



В файл добавлен встроенный .cue с тегами композиций
и вшит album-art (обложки и яблочко).
Иными словами, достаточно запустить сам .flac,
чтобы в плеере появились треки и обложки
(создавать дополнительный .que-sheet не надо)
Приятного прослушивания.
Контрольная по физике:

Лог создания рипа

Exact Audio Copy V1.0 beta 2 from 29. April 2011
EAC extraction logfile from 14. May 2014, 20:33
The London Symphony Orchestra / Plays The Music Of The Rolling Stones
Used drive : ASUS DRW-24B3LT Adapter: 2 ID: 0
Read mode : SecureUtilize accurate stream : YesDefeat audio cache : YesMake use of C2 pointers : No
Read offset correction : 6Overread into Lead-In and Lead-Out : NoFill up missing offset samples with silence : YesDelete leading and trailing silent blocks : NoNull samples used in CRC calculations : YesUsed interface : Native Win32 interface for Win NT & 2000
Used output format : User Defined EncoderSelected bitrate : 896 kBit/sQuality : HighAdd ID3 tag : NoCommand line compressor : E:\PORTABLE PROGRAM FILES\SOUND\Encoders\flac.exeAdditional command line options : -8 -T "Artist=%artist%" -T "Title=%title%" -T "Album=%albumtitle%" -T "Date=%year%" -T "Track Number=%tracknr%" -T "Genre=%genre%" %source% -o %dest%
TOC of the extracted CD
Track | Start | Length | Start sector | End sector --------------------------------------------------------- 1 | 0:00.32 | 3:39.58 | 32 | 16514 2 | 3:40.15 | 3:13.25 | 16515 | 31014 3 | 6:53.40 | 4:29.40 | 31015 | 51229 4 | 11:23.05 | 3:24.37 | 51230 | 66566 5 | 14:47.42 | 3:58.40 | 66567 | 84456 6 | 18:46.07 | 4:30.10 | 84457 | 104716 7 | 23:16.17 | 4:08.00 | 104717 | 123316 8 | 27:24.17 | 3:47.65 | 123317 | 140406 9 | 31:12.07 | 4:54.00 | 140407 | 162456 10 | 36:06.07 | 3:18.65 | 162457 | 177371 11 | 39:24.72 | 4:42.35 | 177372 | 198556 12 | 44:07.32 | 3:37.00 | 198557 | 214831 13 | 47:44.32 | 3:02.35 | 214832 | 228516 14 | 50:46.67 | 4:09.13 | 228517 | 247204
Range status and errors
Selected range
Filename F:\The London Symphony Orchestra Plays The Music Of The Rolling Stones (1994)\The LSO Plays The Music Of The Rolling Stones.wav
Peak level 99.5 % Extraction speed 5.4 X Range quality 99.9 % Test CRC 45834AEA Copy CRC 45834AEA Copy OK
No errors occurred
AccurateRip summary
Track 1 cannot be verified as accurate (confidence 2) [4D7FA39C], AccurateRip returned [520C3760] (AR v2)Track 2 cannot be verified as accurate (confidence 2) [5B45D14B], AccurateRip returned [88820EFF] (AR v2)Track 3 cannot be verified as accurate (confidence 2) [36A66D42], AccurateRip returned [A8DF1356] (AR v2)Track 4 cannot be verified as accurate (confidence 2) [5B206D8E], AccurateRip returned [742916D3] (AR v2)Track 5 cannot be verified as accurate (confidence 2) [306BBA83], AccurateRip returned [C8EB0181] (AR v2)Track 6 cannot be verified as accurate (confidence 2) [A715E60C], AccurateRip returned [383954FD] (AR v2)Track 7 cannot be verified as accurate (confidence 2) [F4A0742B], AccurateRip returned [AD99C649] (AR v2)Track 8 cannot be verified as accurate (confidence 2) [2776EA1E], AccurateRip returned [0FE6BABE] (AR v2)Track 9 cannot be verified as accurate (confidence 2) [D22CDC45], AccurateRip returned [37FBCEF1] (AR v2)Track 10 cannot be verified as accurate (confidence 2) [1D63A085], AccurateRip returned [4E72BDEC] (AR v2)Track 11 cannot be verified as accurate (confidence 2) [400E3625], AccurateRip returned [3A0D1577] (AR v2)Track 12 cannot be verified as accurate (confidence 2) [68B51710], AccurateRip returned [3176F17B] (AR v2)Track 13 cannot be verified as accurate (confidence 2) [89564A2A], AccurateRip returned [B8A89AE9] (AR v2)Track 14 cannot be verified as accurate (confidence 2) [F46CB0C8], AccurateRip returned [3944E6BD] (AR v2)
No tracks could be verified as accurateYou may have a different pressing from the one(s) in the database
End of status report
==== Log checksum F39C45DA87E3787577E5751E4FD6C95A3E55094D557CA188AE5BF44117616682 ====

Содержание индексной карты (.CUE)

REM GENRE "Classic Rock"REM DATE 1994REM DISCID E00CE00EREM COMMENT "ExactAudioCopy v1.0b2"PERFORMER "The London Symphony Orchestra"TITLE "Plays The Music Of The Rolling Stones"FILE "The LSO Plays The Music Of The Rolling Stones.flac" WAVE TRACK 01 AUDIO TITLE "(I Can't Get No) Satisfaction" PERFORMER "The London Symphony Orchestra" INDEX 00 00:00:00 INDEX 01 00:00:32 TRACK 02 AUDIO TITLE "Tumbling Dice" PERFORMER "The London Symphony Orchestra" INDEX 00 03:39:27 INDEX 01 03:40:15 TRACK 03 AUDIO TITLE "Lady Jane" PERFORMER "The London Symphony Orchestra" INDEX 00 06:51:42 INDEX 01 06:53:40 TRACK 04 AUDIO TITLE "Let's Spend The Night Together" PERFORMER "The London Symphony Orchestra" INDEX 00 11:21:15 INDEX 01 11:23:05 TRACK 05 AUDIO TITLE "Get Off Of My Cloud" PERFORMER "The London Symphony Orchestra" INDEX 00 14:45:65 INDEX 01 14:47:42 TRACK 06 AUDIO TITLE "Angie" PERFORMER "The London Symphony Orchestra" INDEX 00 18:44:30 INDEX 01 18:46:07 TRACK 07 AUDIO TITLE "Jumping Jack Flash" PERFORMER "The London Symphony Orchestra" INDEX 00 23:13:55 INDEX 01 23:16:17 TRACK 08 AUDIO TITLE "19th Nervous Breakdown" PERFORMER "The London Symphony Orchestra" INDEX 00 27:22:70 INDEX 01 27:24:17 TRACK 09 AUDIO TITLE "She's A Rainbow" PERFORMER "The London Symphony Orchestra" INDEX 00 31:10:47 INDEX 01 31:12:07 TRACK 10 AUDIO TITLE "Time Is On My Side" PERFORMER "The London Symphony Orchestra" INDEX 00 36:05:20 INDEX 01 36:06:07 TRACK 11 AUDIO TITLE "Under My Thumb" PERFORMER "The London Symphony Orchestra" INDEX 00 39:23:17 INDEX 01 39:24:72 TRACK 12 AUDIO TITLE "Brown Sugar" PERFORMER "The London Symphony Orchestra" INDEX 00 44:06:05 INDEX 01 44:07:32 TRACK 13 AUDIO TITLE "As Tears Go By" PERFORMER "The London Symphony Orchestra" INDEX 00 47:42:40 INDEX 01 47:44:32 TRACK 14 AUDIO TITLE "Wild Horses" PERFORMER "The London Symphony Orchestra" INDEX 00 50:45:37 INDEX 01 50:46:67



Показать сообщения:    

Текущее время: 10-Дек 17:47

Часовой пояс: UTC + 3


Вы не можете начинать темы
Вы не можете отвечать на сообщения
Вы не можете редактировать свои сообщения
Вы не можете удалять свои сообщения
Вы не можете голосовать в опросах
Вы не можете прикреплять файлы к сообщениям
Вы не можете скачивать файлы