(Classical/Jazz) Christina Pluhar & L'Arpeggiata - Music for a While, Improvisations on Purcell (Philippe Jaroussky, Raquel Andueza, Vincenzo Capezzuto, Dominique Visse, Gianluigi Trovesi, Wolfgang Muthspiel) - 2014, FLAC (image+.cue) lossle


 

[Цитировать]

Music for a While
Жанр: Classical/Jazz
Страна-производитель диска: EU
Год издания диска: 2014
Издатель (лейбл): Erato
Номер по каталогу: 08256 463375 0 7
Дата записи: VI.2013
Аудиокодек: FLAC
Тип рипа: image+.cue
Битрейт аудио: lossless
Продолжительность: 1:16'19"
Источник: собственный рип
Наличие сканов в содержимом раздачи: да
Треклист:
01. 'Twas within a furlong
02. Music for a while
03. Strike the viol
04. An Evening Hymn upon a Ground
05. In vain the am'rous flute
06. A prince of glorius race descended
07. O solitude, my sweetest choice
08. When I am laid in earth
09. Wondrous machine
10. Here the deities approve
11. Ah! Belinda
12. Hark! how the songters of the grove
13. One charming night
14. Man is for the woman made
15. O let me weep (The Plaint)
16. Curtain Tune on a Ground
17. Halleluja (Leonard Cohen)
Исполнители:
Philippe Jaroussky, countertenor
Raquel Andueza, soprano
Vincenzo Capezzuto, alto
Dominique Visse, countertenor
Gianluigi Trovesi, clarinet
Wolfgang Muthspiel, acoustic guitar & electric guitar
L'Arpeggiata
Christina Pluhar-

Лог создания рипа

Exact Audio Copy V1.0 beta 1 from 15. November 2010
EAC extraction logfile from 17. March 2014, 23:23
Christina Pluhar / Music for a While
Used drive : Optiarc DVD RW AD-7203A Adapter: 4 ID: 1
Read mode : SecureUtilize accurate stream : YesDefeat audio cache : YesMake use of C2 pointers : No
Read offset correction : 48Overread into Lead-In and Lead-Out : NoFill up missing offset samples with silence : YesDelete leading and trailing silent blocks : NoNull samples used in CRC calculations : YesUsed interface : Native Win32 interface for Win NT & 2000
Used output format : User Defined EncoderSelected bitrate : 128 kBit/sQuality : HighAdd ID3 tag : NoCommand line compressor : C:\Program Files\FLAC\flac.exeAdditional command line options : -T "COMMENT=Ripped by GFox" -8 -V %s
TOC of the extracted CD
Track | Start | Length | Start sector | End sector --------------------------------------------------------- 1 | 0:00.00 | 2:54.03 | 0 | 13052 2 | 2:54.03 | 5:54.25 | 13053 | 39627 3 | 8:48.28 | 3:57.38 | 39628 | 57440 4 | 12:45.66 | 6:06.14 | 57441 | 84904 5 | 18:52.05 | 4:33.72 | 84905 | 105451 6 | 23:26.02 | 4:40.10 | 105452 | 126461 7 | 28:06.12 | 5:23.46 | 126462 | 150732 8 | 33:29.58 | 5:03.29 | 150733 | 173486 9 | 38:33.12 | 3:41.50 | 173487 | 190111 10 | 42:14.62 | 4:47.69 | 190112 | 211705 11 | 47:02.56 | 4:10.23 | 211706 | 230478 12 | 51:13.04 | 2:48.61 | 230479 | 243139 13 | 54:01.65 | 4:40.31 | 243140 | 264170 14 | 58:42.21 | 1:17.60 | 264171 | 270005 15 | 60:00.06 | 7:18.62 | 270006 | 302917 16 | 67:18.68 | 2:56.08 | 302918 | 316125 17 | 70:15.01 | 6:04.22 | 316126 | 343447
Range status and errors
Selected range
Filename D:\EAC\Christina Pluhar - Music for a While.wav
Peak level 92.1 % Extraction speed 0.2 X Range quality 100.0 % Test CRC BB16658D Copy CRC BB16658D Copy OK
No errors occurred
AccurateRip summary
Track 1 not present in databaseTrack 2 not present in databaseTrack 3 not present in databaseTrack 4 not present in databaseTrack 5 not present in databaseTrack 6 not present in databaseTrack 7 not present in databaseTrack 8 not present in databaseTrack 9 not present in databaseTrack 10 not present in databaseTrack 11 not present in databaseTrack 12 not present in databaseTrack 13 not present in databaseTrack 14 not present in databaseTrack 15 not present in databaseTrack 16 not present in databaseTrack 17 not present in database
None of the tracks are present in the AccurateRip database
End of status report
==== Log checksum 69ABCD4D05E763FBF2B95E4C5BE4CDC0451E516C10AF3CAA14F328FA84249A04 ====
-Доп. информация: Кристина Плюхар со своим знаменитым ансамблем L'Arpeggiata продолжает экспериментировать над барочной музыкой. На этот раз объектом эксперимента стал сам "отец английской музыки" Генри Пёрселл, а его темой - джаз. Полный комплект звёзд не самой последней величины, как обычно, прилагается.
PS Композиция 'Twas within a furlong - ну просто чистый термояд.-



Показать сообщения:    

Текущее время: 08-Дек 08:58

Часовой пояс: UTC + 3


Вы не можете начинать темы
Вы не можете отвечать на сообщения
Вы не можете редактировать свои сообщения
Вы не можете удалять свои сообщения
Вы не можете голосовать в опросах
Вы не можете прикреплять файлы к сообщениям
Вы не можете скачивать файлы