(Classical Crossover, Vocal) Amici Forever - Defined - 2005 (Japan Bonus Track Edition), FLAC (tracks+.cue), lossless


 

[Цитировать]

Amici Forever - Defined
Жанр: Classical Crossover, Vocal
Страна-производитель диска: Япония
Год издания диска: 2005
Издатель (лейбл): RCA
Номер по каталогу: BVCF-31126
Аудиокодек: FLAC
Тип рипа: tracks+.cue
Битрейт аудио: lossless
Продолжительность: 53:31
Источник (релизер): JJKWCD (what)
Наличие сканов в содержимом раздачи: да
Треклист:
01. La fiamma sacra (The Sacred Flame) (4:16)
02. Nella fantasia (4:36)
03. The Prayer (4:24)
04. Aranjuez ma pensee (3:55)
05. So Far Away (4:26)
06. Nostalgia (La mia nostalgia) (3:53)
07. Core ngrato (Ungrateful Heart) (4:46)
08. Land & Freedom (Terra e liberta) (4:10)
09. Mon coeur s'ouvre a ta voix (5:28)
10. Recondita armonia (2:30)
11. Adagio (3:19)
12. Ocean Heart (Oceano cuore) (4:40)
13. We Are the Champions (3:08)

Лог создания рипа

Exact Audio Copy V1.0 beta 3 from 29. August 2011
EAC extraction logfile from 24. January 2014, 6:56
Amici Forever / Defined
Used drive : HL-DT-STDVDRAM GH24NS50 Adapter: 2 ID: 1
Read mode : SecureUtilize accurate stream : YesDefeat audio cache : YesMake use of C2 pointers : No
Read offset correction : 667Overread into Lead-In and Lead-Out : NoFill up missing offset samples with silence : YesDelete leading and trailing silent blocks : NoNull samples used in CRC calculations : YesUsed interface : Native Win32 interface for Win NT & 2000Gap handling : Appended to previous track
Used output format : User Defined EncoderSelected bitrate : 1024 kBit/sQuality : HighAdd ID3 tag : NoCommand line compressor : D:\Program Files\FLAC\flac.exeAdditional command line options : -8 -V -T "ARTIST=%artist%" -T "TITLE=%title%" -T "ALBUM=%albumtitle%" -T "DATE=%year%" -T "TRACKNUMBER=%tracknr%" -T "GENRE=%genre%" -T "PERFORMER=%albuminterpret%" -T "COMPOSER=%composer%" %haslyrics%--tag-from-file=LYRICS="%lyricsfile%"%haslyrics% -T "ALBUMARTIST=%albumartist%" -T "DISCNUMBER=%cdnumber%" -T "TOTALDISCS=%totalcds%" -T "TOTALTRACKS=%numtracks%" -T "COMMENT=%comment%" %source% -o %dest%
TOC of the extracted CD
Track | Start | Length | Start sector | End sector --------------------------------------------------------- 1 | 0:00.00 | 4:16.29 | 0 | 19228 2 | 4:16.29 | 4:35.53 | 19229 | 39906 3 | 8:52.07 | 4:23.39 | 39907 | 59670 4 | 13:15.46 | 3:55.11 | 59671 | 77306 5 | 17:10.57 | 4:25.55 | 77307 | 97236 6 | 21:36.37 | 3:53.23 | 97237 | 114734 7 | 25:29.60 | 4:46.04 | 114735 | 136188 8 | 30:15.64 | 4:09.55 | 136189 | 154918 9 | 34:25.44 | 5:27.67 | 154919 | 179510 10 | 39:53.36 | 2:29.66 | 179511 | 190751 11 | 42:23.27 | 3:18.74 | 190752 | 205675 12 | 45:42.26 | 4:39.48 | 205676 | 226648 13 | 50:21.74 | 3:08.01 | 226649 | 240749
Track 1
Filename D:\01 - La Fiamma Sacra (The Sacred Flame).wav
Pre-gap length 0:00:02.00
Peak level 98.8 % Extraction speed 1.0 X Track quality 100.0 % Test CRC 063DB1B7 Copy CRC 063DB1B7 Track not present in AccurateRip database Copy OK
Track 2
Filename D:\02 - Nella Fantasia.wav
Pre-gap length 0:00:00.29
Peak level 98.8 % Extraction speed 1.2 X Track quality 100.0 % Test CRC C3949981 Copy CRC C3949981 Track not present in AccurateRip database Copy OK
Track 3
Filename D:\03 - The Prayer.wav
Pre-gap length 0:00:02.03
Peak level 98.8 % Extraction speed 1.2 X Track quality 100.0 % Test CRC 4EF723AB Copy CRC 4EF723AB Track not present in AccurateRip database Copy OK
Track 4
Filename D:\04 - Aranjuez Ma Pensee.wav
Pre-gap length 0:00:02.12
Peak level 98.8 % Extraction speed 1.3 X Track quality 100.0 % Test CRC B0A9F911 Copy CRC B0A9F911 Track not present in AccurateRip database Copy OK
Track 5
Filename D:\05 - So Far Away.wav
Pre-gap length 0:00:02.23
Peak level 98.8 % Extraction speed 1.5 X Track quality 100.0 % Test CRC 5F17BDD7 Copy CRC 5F17BDD7 Track not present in AccurateRip database Copy OK
Track 6
Filename D:\06 - Nostalgia (La Mia Nostalgia).wav
Pre-gap length 0:00:01.33
Peak level 98.8 % Extraction speed 1.5 X Track quality 100.0 % Test CRC CD5107DD Copy CRC CD5107DD Track not present in AccurateRip database Copy OK
Track 7
Filename D:\07 - Core 'Nngrato (Ungrateful Heart).wav
Pre-gap length 0:00:01.17
Peak level 97.5 % Extraction speed 1.6 X Track quality 100.0 % Test CRC A87A978E Copy CRC A87A978E Track not present in AccurateRip database Copy OK
Track 8
Filename D:\08 - Land & Freedom (Terra e Liberta).wav
Pre-gap length 0:00:03.02
Peak level 98.5 % Extraction speed 1.7 X Track quality 100.0 % Test CRC 4FEB41F8 Copy CRC 4FEB41F8 Track not present in AccurateRip database Copy OK
Track 9
Filename D:\09 - Mon Coeur S'ouvre a Ta Voix.wav
Pre-gap length 0:00:01.37
Peak level 100.0 % Extraction speed 1.8 X Track quality 100.0 % Test CRC 7AF159BD Copy CRC 7AF159BD Track not present in AccurateRip database Copy OK
Track 10
Filename D:\10 - Recondita Armonia.wav
Pre-gap length 0:00:01.50
Peak level 98.8 % Extraction speed 1.7 X Track quality 100.0 % Test CRC 61B09704 Copy CRC 61B09704 Track not present in AccurateRip database Copy OK
Track 11
Filename D:\11 - Adagio.wav
Pre-gap length 0:00:01.31
Peak level 98.8 % Extraction speed 1.9 X Track quality 100.0 % Test CRC 735696D0 Copy CRC 735696D0 Track not present in AccurateRip database Copy OK
Track 12
Filename D:\12 - Ocean Heart (Oceano Cuore).wav
Pre-gap length 0:00:02.31
Peak level 98.8 % Extraction speed 2.0 X Track quality 100.0 % Test CRC 1D5AB7DF Copy CRC 1D5AB7DF Track not present in AccurateRip database Copy OK
Track 13
Filename D:\13 - We Are The Champions.wav
Pre-gap length 0:00:02.49
Peak level 98.8 % Extraction speed 2.0 X Track quality 100.0 % Test CRC 6D3B0B84 Copy CRC 6D3B0B84 Track not present in AccurateRip database Copy OK
None of the tracks are present in the AccurateRip database
No errors occurred
End of status report
---- CUETools DB Plugin V2.1.3
[CTDB TOCID: .by_ax2K4F_iRfS50I4xbu8s8rc-] disk not present in database, Submit result: .by_ax2K4F_iRfS50I4xbu8s8rc- has been uploaded
==== Log checksum 4A55CA3FF5D65694F7B5ABAA1EF680F7D12EDB581B2220D01C3C1AC930A107D8 ====

Содержание индексной карты (.CUE)

REM GENRE ClassicalREM DATE 2005REM DISCID B40C8A0DREM COMMENT "ExactAudioCopy v1.0b3"CATALOG 4988017634455PERFORMER "Amici Forever"TITLE "Defined"FILE "01 - La fiamma sacra (The Sacred Flame).wav" WAVE TRACK 01 AUDIO TITLE "La fiamma sacra (The Sacred Flame)" PERFORMER "Amici Forever" ISRC USV110500058 INDEX 01 00:00:00 TRACK 02 AUDIO TITLE "Nella fantasia" PERFORMER "Amici Forever" ISRC USV110500085 INDEX 00 04:16:00FILE "02 - Nella fantasia.wav" WAVE INDEX 01 00:00:00 TRACK 03 AUDIO TITLE "The Prayer" PERFORMER "Amici Forever" ISRC USV110500091 INDEX 00 04:33:50FILE "03 - The Prayer.wav" WAVE INDEX 01 00:00:00 TRACK 04 AUDIO TITLE "Aranjuez ma pensee" PERFORMER "Amici Forever" ISRC USV110500082 INDEX 00 04:21:27FILE "04 - Aranjuez ma pensee.wav" WAVE INDEX 01 00:00:00 TRACK 05 AUDIO TITLE "So Far Away" PERFORMER "Amici Forever" ISRC USV110500087 INDEX 00 03:52:63FILE "05 - So Far Away.wav" WAVE INDEX 01 00:00:00 TRACK 06 AUDIO TITLE "Nostalgia (La mia nostalgia)" PERFORMER "Amici Forever" ISRC USV110500084 INDEX 00 04:24:22FILE "06 - Nostalgia (La mia nostalgia).wav" WAVE INDEX 01 00:00:00 TRACK 07 AUDIO TITLE "Core ngrato (Ungrateful Heart)" PERFORMER "Amici Forever" ISRC USV110500090 INDEX 00 03:52:06FILE "07 - Core Ngrato (Ungrateful Heart).wav" WAVE INDEX 01 00:00:00 TRACK 08 AUDIO TITLE "Land & Freedom (Terra e liberta)" PERFORMER "Amici Forever" ISRC USV110500086 INDEX 00 04:43:02FILE "08 - Land & Freedom (Terra e liberta).wav" WAVE INDEX 01 00:00:00 TRACK 09 AUDIO TITLE "Mon coeur s'ouvre a ta voix" PERFORMER "Amici Forever" ISRC USV110500059 INDEX 00 04:08:18FILE "09 - Mon coeur s'ouvre a ta voix.wav" WAVE INDEX 01 00:00:00 TRACK 10 AUDIO TITLE "Recondita armonia" PERFORMER "Amici Forever" ISRC USV110500089 INDEX 00 05:26:17FILE "10 - Recondita armonia.wav" WAVE INDEX 01 00:00:00 TRACK 11 AUDIO TITLE "Adagio" PERFORMER "Amici Forever" ISRC USV110500083 INDEX 00 02:28:35FILE "11 - Adagio.wav" WAVE INDEX 01 00:00:00 TRACK 12 AUDIO TITLE "Ocean Heart (Oceano cuore)" PERFORMER "Amici Forever" ISRC USV110500088 INDEX 00 03:16:43FILE "12 - Ocean Heart (Oceano cuore).wav" WAVE INDEX 01 00:00:00 TRACK 13 AUDIO TITLE "We Are the Champions" PERFORMER "Amici Forever" ISRC USV110500266 INDEX 00 04:36:74FILE "13 - We Are the Champions.wav" WAVE INDEX 01 00:00:00

Отчет CUETools

[CUETools log; Date: 11.02.2014 2:42:05; Version: 2.1.4][CTDB TOCID: .by_ax2K4F_iRfS50I4xbu8s8rc-] found.Track | CTDB Status 1 | (1/1) Accurately ripped 2 | (1/1) Accurately ripped 3 | (1/1) Accurately ripped 4 | (1/1) Accurately ripped 5 | (1/1) Accurately ripped 6 | (1/1) Accurately ripped 7 | (1/1) Accurately ripped 8 | (1/1) Accurately ripped 9 | (1/1) Accurately ripped 10 | (1/1) Accurately ripped 11 | (1/1) Accurately ripped 12 | (1/1) Accurately ripped 13 | (1/1) Accurately ripped[AccurateRip ID: 001a96c4-010877d4-b40c8a0d] disk not present in database.
Track Peak [ CRC32 ] [W/O NULL] [ LOG ] -- 100,0 [08ACC268] [E6200098] 01 98,8 [063DB1B7] [2A88CD35] CRC32 02 98,8 [C3949981] [1D9BCB4A] CRC32 03 98,8 [4EF723AB] [05F6A191] CRC32 04 98,8 [B0A9F911] [4CEA5ADB] CRC32 05 98,8 [5F17BDD7] [794576C0] CRC32 06 98,8 [CD5107DD] [B82A791C] CRC32 07 97,5 [A87A978E] [A0B4CA0F] CRC32 08 98,5 [4FEB41F8] [BC834251] CRC32 09 100,0 [7AF159BD] [A1D319BF] CRC32 10 98,8 [61B09704] [B5B56852] CRC32 11 98,8 [735696D0] [63C27CFB] CRC32 12 98,8 [1D5AB7DF] [620F7235] CRC32 13 98,8 [6D3B0B84] [5188A4BB] CRC32

Об альбоме (сборнике)

Amici Forever is made up of five camera-ready young singers with talent and charisma to spare. So what distinguishes them from the burgeoning ranks of crossover hopefuls? The group's wide vocal range and imaginative approach enables it to transform even a much-abused warhorses into fresh-sounding anthems. Their formal training provides the necessary technique and understanding to do justice to the classics, and the enthusiasm and respect they show for their material steers them far clear of the banality that mars a good deal of crossover music.
DEFINED picks up where the quintet's enormously successful debut disc, OPERA BAND, left off, with more stylish arrangements of memorable melodies from the orchestral repertoire, as well as soaring, quasi-operatic ballads. Highlights include impressive vocal renditions of themes from Beethoven's Seventh Symphony ("Land and Freedom"), Rachmaninoff's Second Piano Concerto ("Nostalgia"), Khachaturian's 'Spartacus' ("Ocean Heart"), and Rodrigo's Concierto de Aranjuez ("Aranjuez Ma pensee"). The group also works its magic on two original songs by Ronan Hardiman, "So Far Away" and "La Fiamma Sacra," as well as Ennio Moriccone's "Nella Fantasia" and the classic Neapolitan song "Core 'ngrato." Amici Forever expertly delivers another guaranteed crowd-pleaser with DEFINED.



Показать сообщения:    

Текущее время: 18-Янв 00:22

Часовой пояс: UTC + 3


Вы не можете начинать темы
Вы не можете отвечать на сообщения
Вы не можете редактировать свои сообщения
Вы не можете удалять свои сообщения
Вы не можете голосовать в опросах
Вы не можете прикреплять файлы к сообщениям
Вы не можете скачивать файлы