(Classical, Instrumental) Classical Beatles (2 CD) - 2011, FLAC (image+.cue) lossless


 

[Цитировать]

VA / Classical Beatles (2 CD)
Жанр: Classical, Instrumental, Guitar
Страна-производитель диска: Россия
Год издания диска: 2011
Аудиокодек: FLAC
Тип рипа: image+.cue
Битрейт аудио: lossless
Продолжительность: CD1 - 73:26; CD2 - 73:54
Источник: собственный диск
Наличие сканов в содержимом раздачи: нет

ТреклистCD1

Beatles. Classical Beatles CD 1 Arranged for Classical Guitar
1. Michelle
2. Fool on the Hill
3. Eleanor Rigby
4. Here Comes the Sun
5. Can’t Buy Me Love
6. Norwegian Wood (This Bird Has Flown)
7. I Want To Hold Your Hand
8. Yesterday
9. Day Tripper
10. Yellow Submarine
11. Girl
12. Hey Jude
13. And I Love Her
14. The Long and Winding Road
15. Across the Universe
16. Help!
17. From Yesterday To Penny Lane: I. She's Leaving Home
18. From Yesterday To Penny Lane: II. Ticket To Ride
19. From Yesterday To Penny Lane: III. Here, There And Everywhere
20. From Yesterday To Penny Lane: IV. Yesterday
21. From Yesterday To Penny Lane: V. Got To Get You Into My Life
22. From Yesterday To Penny Lane: VI. Eleanor Rigby
23. From Yesterday To Penny Lane: VII. Penny Lane

CD2

Beatles. Classical Beatles CD 2 Arranged for Orchestra
1. The Beatles Concerto: I. Maestoso – Allegro Moderato. She Loves You, Eleanor Rigby, All My Loving, Hey Jude
2. The Beatles Concerto: II. Andante Espressivo. Here, There And Everywhere, Something
3. The Beatles Concerto: III. Presto. Can't Buy Me Love, The Long And Winding Road
4. Yesterday
5. Hey Jude
6. Michelle
7. Ticket to Ride
8. The Fool on the Hill
9. Something
10. Beatlecracker Suite (in the style of Tchaikovsky): I. Miniature Overture (Help!)
11. Beatlecracker Suite (in the style of Tchaikovsky): II. March (When I'm Sixty-Four)
12. Beatlecracker Suite (in the style of Tchaikovsky): III. Dance Of The Sugar Plum Fairy (Can't Buy Me Love)
13. Beatlecracker Suite (in the style of Tchaikovsky): IV. Arabian Dance (It's For You)
14. Beatlecracker Suite (in the style of Tchaikovsky): V. Chinese Dance (Ticket To Ride)
15. Beatlecracker Suite (in the style of Tchaikovsky): VI. Dance Of The Reed-Pipes (She Loves You)
16. Beatlecracker Suite (in the style of Tchaikovsky): VII. Waltz Of The Flowers (From Me To You)
17. Beatlecracker Suite (in the style of Tchaikovsky): VIII. Pas De Deux (All My Loving)
18. Got To Get You into My Life
19. Norwegian Wood (This Bird Has Flown)
20. Get Back
21. A Hard Day’s Night
22. Let It Be

Отчёт EAC

CD1

Exact Audio Copy V1.0 beta 3 from 29. August 2011
Отчёт EAC об извлечении, выполненном 6. февраля 2014, 0:02
Various Artists / Classical Beatles (Disc 1 Classical Guitar)
Дисковод: PLEXTOR DVDR PX-608CU Adapter: 1 ID: 0
Режим чтения : Достоверность
Использование точного потока : Да
Отключение кэша аудио : Да
Использование указателей C2 : Нет
Коррекция смещения при чтении : 48
Способность читать области Lead-in и Lead-out : Нет
Заполнение пропущенных сэмплов тишиной : Да
Удаление блоков с тишиной в начале и конце : Нет
При вычислениях CRC использовались нулевые сэмплы : Да
Интерфейс : Встроенный Win32-интерфейс для Win NT/2000
Выходной формат : Пользовательский кодировщик
Выбранный битрейт : 1024 kBit/s
Качество : Высокий
Добавление ID3-тега : Нет
Утилита сжатия : C:\Program Files\Exact Audio Copy\Flac\flac.exe
Дополнительные параметры : -V -8 -T "Date=%year%" -T "Genre=%genre%" %source%
TOC извлечённого CD
Трек | Старт | Длительность | Начальный сектор | Конечный сектор
---------------------------------------------------------------------
1 | 0:00.00 | 2:52.20 | 0 | 12919
2 | 2:52.20 | 2:40.49 | 12920 | 24968
3 | 5:32.69 | 2:12.25 | 24969 | 34893
4 | 7:45.19 | 2:00.08 | 34894 | 43901
5 | 9:45.27 | 2:58.59 | 43902 | 57310
6 | 12:44.11 | 3:37.57 | 57311 | 73642
7 | 16:21.68 | 3:55.22 | 73643 | 91289
8 | 20:17.15 | 3:32.19 | 91290 | 107208
9 | 23:49.34 | 1:54.37 | 107209 | 115795
10 | 25:43.71 | 2:50.21 | 115796 | 128566
11 | 28:34.17 | 2:56.19 | 128567 | 141785
12 | 31:30.36 | 2:53.62 | 141786 | 154822
13 | 34:24.23 | 2:34.50 | 154823 | 166422
14 | 36:58.73 | 2:35.44 | 166423 | 178091
15 | 39:34.42 | 8:30.34 | 178092 | 216375
16 | 48:05.01 | 2:41.73 | 216376 | 228523
17 | 50:46.74 | 3:45.11 | 228524 | 245409
18 | 54:32.10 | 3:14.07 | 245410 | 259966
19 | 57:46.17 | 3:40.67 | 259967 | 276533
20 | 61:27.09 | 2:42.59 | 276534 | 288742
21 | 64:09.68 | 2:07.43 | 288743 | 298310
22 | 66:17.36 | 4:22.52 | 298311 | 318012
23 | 70:40.13 | 2:46.10 | 318013 | 330472
Характеристики диапазона извлечения и сообщения об ошибках
Выбранный диапазон
Имя файла C:\Users\ИГОРЬ\Downloads\Новая папка\Various Artists - Classical Beatles (Disc 1 Classical Guitar).wav
Пиковый уровень 93.3 %
Скорость извлечения 2.0 X
Качество диапазона 99.9 %
CRC теста D7CC024C
CRC копии D7CC024C
Копирование... OK
Ошибок не произошло
Конец отчёта
==== Контрольная сумма отчёта 86E0CD5F00F53ED374F7CBF4EC4B19A3ABC2059C3102E4BAEFBA7C6E05CB55B2 ====

CD2

Exact Audio Copy V1.0 beta 3 from 29. August 2011
Отчёт EAC об извлечении, выполненном 5. февраля 2014, 22:31
Various / Classical Beatles
Дисковод: PLEXTOR DVDR PX-608CU Adapter: 1 ID: 0
Режим чтения : Достоверность
Использование точного потока : Да
Отключение кэша аудио : Да
Использование указателей C2 : Нет
Коррекция смещения при чтении : 48
Способность читать области Lead-in и Lead-out : Нет
Заполнение пропущенных сэмплов тишиной : Да
Удаление блоков с тишиной в начале и конце : Нет
При вычислениях CRC использовались нулевые сэмплы : Да
Интерфейс : Встроенный Win32-интерфейс для Win NT/2000
Выходной формат : Пользовательский кодировщик
Выбранный битрейт : 1024 kBit/s
Качество : Высокий
Добавление ID3-тега : Нет
Утилита сжатия : C:\Program Files\Exact Audio Copy\Flac\flac.exe
Дополнительные параметры : -V -8 -T "Date=%year%" -T "Genre=%genre%" %source%
TOC извлечённого CD
Трек | Старт | Длительность | Начальный сектор | Конечный сектор
---------------------------------------------------------------------
1 | 0:00.00 | 8:06.26 | 0 | 36475
2 | 8:06.26 | 7:52.54 | 36476 | 71929
3 | 15:59.05 | 7:42.40 | 71930 | 106619
4 | 23:41.45 | 3:41.69 | 106620 | 123263
5 | 27:23.39 | 4:55.36 | 123264 | 145424
6 | 32:19.00 | 3:18.39 | 145425 | 160313
7 | 35:37.39 | 3:22.45 | 160314 | 175508
8 | 39:00.09 | 3:01.38 | 175509 | 189121
9 | 42:01.47 | 2:44.53 | 189122 | 201474
10 | 44:46.25 | 1:21.37 | 201475 | 207586
11 | 46:07.62 | 1:30.73 | 207587 | 214409
12 | 47:38.60 | 1:07.70 | 214410 | 219504
13 | 48:46.55 | 2:13.72 | 219505 | 229551
14 | 51:00.52 | 1:30.01 | 229552 | 236302
15 | 52:30.53 | 1:11.12 | 236303 | 241639
16 | 53:41.65 | 1:17.66 | 241640 | 247480
17 | 54:59.56 | 3:07.70 | 247481 | 261575
18 | 58:07.51 | 2:44.18 | 261576 | 273893
19 | 60:51.69 | 2:07.04 | 273894 | 283422
20 | 62:58.73 | 3:12.44 | 283423 | 297866
21 | 66:11.42 | 3:04.47 | 297867 | 311713
22 | 69:16.14 | 4:38.25 | 311714 | 332588
Характеристики диапазона извлечения и сообщения об ошибках
Выбранный диапазон
Имя файла C:\Users\ИГОРЬ\Downloads\Новая папка\Various - Classical Beatles.wav
Пиковый уровень 99.4 %
Скорость извлечения 5.1 X
Качество диапазона 99.9 %
CRC теста CD51EF5A
CRC копии CD51EF5A
Копирование... OK
Ошибок не произошло
Конец отчёта
==== Контрольная сумма отчёта 310636FC0FAA7CA03A7D02BD5E606CBE6D92B41232CEF10449BC2E42B5AA4329 ====

Содержание индексной карты (.CUE)

CD1

REM GENRE Classical
REM DATE 2012
REM DISCID 73113617
REM COMMENT "ExactAudioCopy v1.0b3"
PERFORMER "Various Artists"
TITLE "Classical Beatles (Disc 1 Classical Guitar)"
FILE "Various Artists - Classical Beatles (Disc 1 Classical Guitar).flac" WAVE
TRACK 01 AUDIO
TITLE "Michelle"
PERFORMER "Various Artists"
INDEX 01 00:00:00
TRACK 02 AUDIO
TITLE "Fool On The Hill"
PERFORMER "Various Artists"
INDEX 00 02:49:38
INDEX 01 02:52:20
TRACK 03 AUDIO
TITLE "Eleanor Rigby"
PERFORMER "Various Artists"
INDEX 00 05:30:12
INDEX 01 05:32:69
TRACK 04 AUDIO
TITLE "Here Comes The Sun"
PERFORMER "Various Artists"
INDEX 00 07:42:36
INDEX 01 07:45:19
TRACK 05 AUDIO
TITLE "Can't Buy Me Love"
PERFORMER "Various Artists"
INDEX 00 09:42:44
INDEX 01 09:45:27
TRACK 06 AUDIO
TITLE "Norwegian Wood (This Bird Has Flown)"
PERFORMER "Various Artists"
INDEX 00 12:41:28
INDEX 01 12:44:11
TRACK 07 AUDIO
TITLE "I Want To Hold Your Hand"
PERFORMER "Various Artists"
INDEX 00 16:19:10
INDEX 01 16:21:68
TRACK 08 AUDIO
TITLE "Yesterday"
PERFORMER "Various Artists"
INDEX 00 20:14:32
INDEX 01 20:17:15
TRACK 09 AUDIO
TITLE "Day Tripper"
PERFORMER "Various Artists"
INDEX 00 23:46:52
INDEX 01 23:49:34
TRACK 10 AUDIO
TITLE "Yellow Submarine"
PERFORMER "Various Artists"
INDEX 00 25:41:13
INDEX 01 25:43:71
TRACK 11 AUDIO
TITLE "Girl"
PERFORMER "Various Artists"
INDEX 00 28:31:35
INDEX 01 28:34:17
TRACK 12 AUDIO
TITLE "Hey Jude"
PERFORMER "Various Artists"
INDEX 00 31:27:53
INDEX 01 31:30:36
TRACK 13 AUDIO
TITLE "And I Love Her"
PERFORMER "Various Artists"
INDEX 00 34:21:41
INDEX 01 34:24:23
TRACK 14 AUDIO
TITLE "The Long And Winding Road"
PERFORMER "Various Artists"
INDEX 00 36:56:16
INDEX 01 36:58:73
TRACK 15 AUDIO
TITLE "Across The Universe"
PERFORMER "Various Artists"
INDEX 00 39:31:60
INDEX 01 39:34:42
TRACK 16 AUDIO
TITLE "Help"
PERFORMER "Various Artists"
INDEX 00 48:02:18
INDEX 01 48:05:01
TRACK 17 AUDIO
TITLE "She's Leaving Home"
PERFORMER "Various Artists"
INDEX 00 50:44:16
INDEX 01 50:46:74
TRACK 18 AUDIO
TITLE "Ticket To Ride"
PERFORMER "Various Artists"
INDEX 00 54:30:26
INDEX 01 54:32:10
TRACK 19 AUDIO
TITLE "Here, There and Everywhere"
PERFORMER "Various Artists"
INDEX 00 57:43:33
INDEX 01 57:46:17
TRACK 20 AUDIO
TITLE "Yesterday"
PERFORMER "Various Artists"
INDEX 00 61:24:25
INDEX 01 61:27:09
TRACK 21 AUDIO
TITLE "Got To Get You Into My Life"
PERFORMER "Various Artists"
INDEX 00 64:06:10
INDEX 01 64:09:68
TRACK 22 AUDIO
TITLE "Eleanor Rigby"
PERFORMER "Various Artists"
INDEX 00 66:14:53
INDEX 01 66:17:36
TRACK 23 AUDIO
TITLE "Penny Lane"
PERFORMER "Various Artists"
INDEX 00 70:36:30
INDEX 01 70:40:13

CD2

REM GENRE Crossover
REM DATE 2011
REM DISCID 55115216
REM COMMENT "ExactAudioCopy v1.0b3"
PERFORMER "Various"
TITLE "Classical Beatles"
FILE "Various - Classical Beatles.flac" WAVE
TRACK 01 AUDIO
TITLE "Beatles Concerto, 1st movt"
PERFORMER "Peter Rostal & Paul Schaefer, pianos; Royal Philharmonic Orchestra, John Rutter"
INDEX 01 00:00:00
TRACK 02 AUDIO
TITLE "Beatles Concerto, 2nd movt"
PERFORMER "Peter Rostal & Paul Schaefer, pianos; Royal Philharmonic Orchestra, John Rutter"
INDEX 00 08:01:42
INDEX 01 08:06:26
TRACK 03 AUDIO
TITLE "Beatles Concerto, 3rd movt"
PERFORMER "Peter Rostal & Paul Schaefer, pianos; Royal Philharmonic Orchestra, John Rutter"
INDEX 00 15:55:22
INDEX 01 15:59:05
TRACK 04 AUDIO
TITLE "Yesterday"
PERFORMER "Fron Male Voice Choir; Jon Cohen, keyboards; Czech Film Orchestra, Cliff Mast..."
INDEX 00 23:38:63
INDEX 01 23:41:45
TRACK 05 AUDIO
TITLE "Hey Jude"
PERFORMER "Fron Male Voice Choir; Jon Cohen, guitars & keyboards; Tom Lewis, trumpet"
INDEX 00 27:20:57
INDEX 01 27:23:39
TRACK 06 AUDIO
TITLE "Michelle"
PERFORMER "Frank Chacksfield and His Orchestra"
INDEX 00 32:16:18
INDEX 01 32:19:00
TRACK 07 AUDIO
TITLE "Ticket to Ride"
PERFORMER "Frank Chacksfield and His Orchestra"
INDEX 00 35:34:56
INDEX 01 35:37:39
TRACK 08 AUDIO
TITLE "The Fool on the Hill"
PERFORMER "Frank Chacksfield and His Orchestra"
INDEX 00 38:57:27
INDEX 01 39:00:09
TRACK 09 AUDIO
TITLE "Something"
PERFORMER "Frank Chacksfield and His Orchestra"
INDEX 00 41:58:65
INDEX 01 42:01:47
TRACK 10 AUDIO
TITLE "Beatlecracker Suite, I - Miniature Overture"
PERFORMER "The City of Prague Philharmonic Orchestra, Gavin Sutherland"
INDEX 00 44:43:43
INDEX 01 44:46:25
TRACK 11 AUDIO
TITLE "Beatlecracker Suite, II - March"
PERFORMER "The City of Prague Philharmonic Orchestra, Gavin Sutherland"
INDEX 01 46:07:62
TRACK 12 AUDIO
TITLE "Beatlecracker Suite, III - Dance of the Sugar Plum Fairy"
PERFORMER "The City of Prague Philharmonic Orchestra, Gavin Sutherland"
INDEX 01 47:38:60
TRACK 13 AUDIO
TITLE "Beatlecracker Suite, IV - Arabian Dance"
PERFORMER "The City of Prague Philharmonic Orchestra, Gavin Sutherland"
INDEX 01 48:46:55
TRACK 14 AUDIO
TITLE "Beatlecracker Suite, V - Chinese Dance"
PERFORMER "The City of Prague Philharmonic Orchestra, Gavin Sutherland"
INDEX 01 51:00:52
TRACK 15 AUDIO
TITLE "Beatlecracker Suite, VI - Dance of the Reed Pipes"
PERFORMER "The City of Prague Philharmonic Orchestra, Gavin Sutherland"
INDEX 01 52:30:53
TRACK 16 AUDIO
TITLE "Beatlecracker Suite, VII - Waltz of the Flowers"
PERFORMER "The City of Prague Philharmonic Orchestra, Gavin Sutherland"
INDEX 01 53:41:65
TRACK 17 AUDIO
TITLE "Beatlecracker Suite, VIII - Pas de deux"
PERFORMER "The City of Prague Philharmonic Orchestra, Gavin Sutherland"
INDEX 01 54:59:56
TRACK 18 AUDIO
TITLE "Got to Get You into My Life"
PERFORMER "Frank Chacksfield and His Orchestra"
INDEX 00 58:04:69
INDEX 01 58:07:51
TRACK 19 AUDIO
TITLE "Norwegian Wood (This Bird Has Flown)"
PERFORMER "Frank Chacksfield and His Orchestra"
INDEX 00 60:49:12
INDEX 01 60:51:69
TRACK 20 AUDIO
TITLE "Get Back"
PERFORMER "Frank Chacksfield and His Orchestra"
INDEX 00 62:56:16
INDEX 01 62:58:73
TRACK 21 AUDIO
TITLE "A Hard Day's Night"
PERFORMER "Frank Chacksfield and His Orchestra"
INDEX 00 66:08:59
INDEX 01 66:11:42
TRACK 22 AUDIO
TITLE "Let It Be"
PERFORMER "Boston Pops Orchestra, Arthur Fiedler"
INDEX 00 69:13:31
INDEX 01 69:16:14
Сборник Classical Beatles – двухдисковая коллекция лучших хитов The Beatles в исполнении классической гитары и оркестра.
На первом диске представлены самые известные песни The Beatles, которые на классической гитаре исполнены такими мастерами, как Горан Золльхер, Каори Мураджи и также другими виртуозами.
На втором диске можно будет найти лучшие хиты в исполнении нескольких оркестров, в том числе Пражского филармонического оркестра и оркестра Фрэнка Чаксфилда.



Показать сообщения:    

Текущее время: 19-Янв 22:17

Часовой пояс: UTC + 3


Вы не можете начинать темы
Вы не можете отвечать на сообщения
Вы не можете редактировать свои сообщения
Вы не можете удалять свои сообщения
Вы не можете голосовать в опросах
Вы не можете прикреплять файлы к сообщениям
Вы не можете скачивать файлы