(Modern Classical) [CD] Performed By The Royal Philharmonic Orchestra - Philharmonic Pop Classics - 1993, APE (image+.cue), lossless


 

[Цитировать]

Performed By The Royal Philharmonic Orchestra / Philharmonic Pop Classics
Жанр: Modern Classical
Носитель: CD
Страна-производитель диска: Benelux
Год издания: 1993
Издатель (лейбл): BIEM/STEMRA
Номер по каталогу: DCD 5303
Страна: England
Аудиокодек: APE (*.ape)
Тип рипа: image+.cue
Битрейт аудио: lossless
Продолжительность: 97:47.05
Источник (релизер): Собственная коллекция
Наличие сканов в содержимом раздачи: да
Треклист:
CD 1
01. Bohemian Rhapsody
02. I Have A Dream
03. Eleanor Rigbi
04. Emotional Rescue
05. You're My Best Friend
06. Money Money Money
07. She Loves You
08. Satisfaction
09. Somebody To Love
10. Mamma Mia
CD 2
01. We Are The Champions
02. Mull Of Kintyre
03. As Tears Go By
04. Chiquitita
05. Killer Queen
06. All You Need Is Love
07. Lady Jane
08. Knowing Me, Knowing You
09. Sergeant Pepper's Lonely Hearts Club Band
10. Fool To Cry

Лог создания рипа CD 1

Exact Audio Copy V1.0 beta 3 from 29. August 2011
Отчёт EAC об извлечении, выполненном 31. января 2014, 18:28
The Royal Philharmonic Orchestra / Philharmonic Pop Classics
Дисковод: HL-DT-STDVDRAM GT34N Adapter: 0 ID: 1
Режим чтения : ДостоверностьИспользование точного потока : ДаОтключение кэша аудио : ДаИспользование указателей C2 : Нет
Коррекция смещения при чтении : 103Способность читать области Lead-in и Lead-out : НетЗаполнение пропущенных сэмплов тишиной : ДаУдаление блоков с тишиной в начале и конце : НетПри вычислениях CRC использовались нулевые сэмплы : ДаИнтерфейс : Установленный внешний ASPI-интерфейс
Выходной формат : Внутренние WAV-операцииФормат сэмплов : 44.100 Гц; 16 бит; стерео
TOC извлечённого CD
Трек | Старт | Длительность | Начальный сектор | Конечный сектор --------------------------------------------------------------------- 1 | 0:00.00 | 6:18.65 | 0 | 28414 2 | 6:18.65 | 4:39.42 | 28415 | 49381 3 | 10:58.32 | 3:31.13 | 49382 | 65219 4 | 14:29.45 | 5:59.00 | 65220 | 92144 5 | 20:28.45 | 3:25.52 | 92145 | 107571 6 | 23:54.22 | 5:52.43 | 107572 | 134014 7 | 29:46.65 | 3:22.52 | 134015 | 149216 8 | 33:09.42 | 7:33.15 | 149217 | 183206 9 | 40:42.57 | 4:17.43 | 183207 | 202524 10 | 45:00.25 | 3:09.65 | 202525 | 216764
Характеристики диапазона извлечения и сообщения об ошибках
Выбранный диапазон
Имя файла E:\2\The Royal Philharmonic Orchestra - 1993 Philharmonic Pop Classics\CD 1\The Royal Philharmonic Orchestra - Philharmonic Pop Classics.wav
Пиковый уровень 100.0 % Скорость извлечения 2.0 X Качество диапазона 100.0 % CRC теста F47E6C08 CRC копии F47E6C08 Копирование... OK
Ошибок не произошло
AccurateRip: сводка
Трек 1 отсутствует в базе данныхТрек 2 отсутствует в базе данныхТрек 3 отсутствует в базе данныхТрек 4 отсутствует в базе данныхТрек 5 отсутствует в базе данныхТрек 6 отсутствует в базе данныхТрек 7 отсутствует в базе данныхТрек 8 отсутствует в базе данныхТрек 9 отсутствует в базе данныхТрек 10 отсутствует в базе данных
Ни одного трека нет в базе AccurateRip
Конец отчёта
---- CUETools DB Plugin V2.1.3
[CTDB TOCID: oLbGzDvI1hg9T6FcpEO.2rRu0zc-] database access error: Попытка чтения или записи в защищенную память. Это часто свидетельствует о том, что другая память повреждена.
==== Контрольная сумма отчёта 5793F7A74A4C929107E3176C2F06

Лог создания рипа CD 2

Exact Audio Copy V1.0 beta 3 from 29. August 2011
Отчёт EAC об извлечении, выполненном 31. января 2014, 17:21
The Royal Philharmonic Orchestra / Philharmonic Pop Classics
Дисковод: HL-DT-STDVDRAM GT34N Adapter: 0 ID: 1
Режим чтения : ДостоверностьИспользование точного потока : ДаОтключение кэша аудио : ДаИспользование указателей C2 : Нет
Коррекция смещения при чтении : 103Способность читать области Lead-in и Lead-out : НетЗаполнение пропущенных сэмплов тишиной : ДаУдаление блоков с тишиной в начале и конце : НетПри вычислениях CRC использовались нулевые сэмплы : ДаИнтерфейс : Установленный внешний ASPI-интерфейс
Выходной формат : Внутренние WAV-операцииФормат сэмплов : 44.100 Гц; 16 бит; стерео
TOC извлечённого CD
Трек | Старт | Длительность | Начальный сектор | Конечный сектор --------------------------------------------------------------------- 1 | 0:00.00 | 3:22.12 | 0 | 15161 2 | 3:22.12 | 5:08.53 | 15162 | 38314 3 | 8:30.65 | 6:36.22 | 38315 | 68036 4 | 15:07.12 | 2:54.38 | 68037 | 81124 5 | 18:01.50 | 5:11.20 | 81125 | 104469 6 | 23:12.70 | 2:46.57 | 104470 | 116976 7 | 25:59.52 | 5:43.45 | 116977 | 142746 8 | 31:43.22 | 5:27.28 | 142747 | 167299 9 | 37:10.50 | 5:54.02 | 167300 | 193851 10 | 43:04.52 | 6:32.63 | 193852 | 223314
Характеристики диапазона извлечения и сообщения об ошибках
Выбранный диапазон
Имя файла E:\2\The Royal Philharmonic Orchestra - 1993 Philharmonic Pop Classics\CD 1\The Royal Philharmonic Orchestra - Philharmonic Pop Classics.wav
Пиковый уровень 100.0 % Скорость извлечения 2.0 X Качество диапазона 100.0 % CRC теста 936D647A CRC копии 936D647A Копирование... OK
Ошибок не произошло
AccurateRip: сводка
Трек 1 отсутствует в базе данныхТрек 2 отсутствует в базе данныхТрек 3 отсутствует в базе данныхТрек 4 отсутствует в базе данныхТрек 5 отсутствует в базе данныхТрек 6 отсутствует в базе данныхТрек 7 отсутствует в базе данныхТрек 8 отсутствует в базе данныхТрек 9 отсутствует в базе данныхТрек 10 отсутствует в базе данных
Ни одного трека нет в базе AccurateRip
Конец отчёта
---- CUETools DB Plugin V2.1.3
[CTDB TOCID: w4geOg6R.f3UJSvoxbMjJWn74sk-] database access error: Попытка чтения или записи в защищенную память. Это часто свидетельствует о том, что другая память повреждена.
==== Контрольная сумма отчёта 4CB329F0A851AF4F5B95E152B053E



Показать сообщения:    

Текущее время: 07-Дек 11:34

Часовой пояс: UTC + 3


Вы не можете начинать темы
Вы не можете отвечать на сообщения
Вы не можете редактировать свои сообщения
Вы не можете удалять свои сообщения
Вы не можете голосовать в опросах
Вы не можете прикреплять файлы к сообщениям
Вы не можете скачивать файлы