(Classical) Crystal trio - Live concert with orchestra and choir - 2009, FLAC (image+.cue) lossless


 

[Цитировать]

Crystal trio / Live concert with orchestra and choir
Жанр: Classical
Страна-производитель диска: Россия
Год издания диска: 2009
Издатель (лейбл): SoLyd Records
Номер по каталогу: SLR 0393
Страна: Россия
Аудиокодек: FLAC
Тип рипа: image+.cue
Битрейт аудио: lossless
Продолжительность: 01:06:49
Источник: CD
Наличие сканов в содержимом раздачи: присутствуют
Треклист:
01 - L.Boccherini / Menuetto
02 - W.A.Mozart / Adagio and Rondo for Glass Armonica, Flute
03 - W.A.Mozart / Rondo
04 - Massenet / Meditation
05 - G.Bizet / Pastorale
06 - J.S.Bach / Badinerie
07 - F.P.Schubert / Ave Maria
08 - A.Dvorak / Humoresque
09 - C.Saint-Saens / The swan
10 - N.A.Rimsky-Korsakov / Spring
11 - P.I.Tchaikovsky / Dance of the sugar plum faiy
12 - P.I.Tchaikovsky / Herdsmen Dance
13 - P.I.Tchaikovsky / October
14 - K.Jenkins -Adiemus:Songs of Sanctuary / Cantus Insolitus
15 - K.Jenkins -Adiemus:Songs of Sanctuary / Amate adea
16 - K.Jenkins -Adiemus:Songs of Sanctuary / Hymn
Добавлены сканы обложки и диска. Торрент обновлён!

Лог создания рипа

Exact Audio Copy V1.0 beta 3 from 29. August 2011
Отчёт EAC об извлечении, выполненном 1. января 2014, 21:57
Cristal Trio / Live concert with orchestra and choir
Дисковод: Optiarc DVD RW AD-7243S Adapter: 0 ID: 1
Режим чтения : ДостоверностьИспользование точного потока : ДаОтключение кэша аудио : ДаИспользование указателей C2 : Нет
Коррекция смещения при чтении : 48Способность читать области Lead-in и Lead-out : НетЗаполнение пропущенных сэмплов тишиной : ДаУдаление блоков с тишиной в начале и конце : НетПри вычислениях CRC использовались нулевые сэмплы : ДаИнтерфейс : Встроенный Win32-интерфейс для Win NT/2000
Выходной формат : Пользовательский кодировщикВыбранный битрейт : 128 kBit/sКачество : ВысокийДобавление ID3-тега : НетУтилита сжатия : C:\Program Files (x86)\Exact Audio Copy\Flac\flac.exeДополнительные параметры : -V -8 -T "Date=%year%" -T "Genre=%genre%" %source%
TOC извлечённого CD
Трек | Старт | Длительность | Начальный сектор | Конечный сектор --------------------------------------------------------------------- 1 | 0:00.00 | 2:41.64 | 0 | 12138 2 | 2:41.64 | 4:37.48 | 12139 | 32961 3 | 7:19.37 | 8:28.11 | 32962 | 71072 4 | 15:47.48 | 5:37.34 | 71073 | 96381 5 | 21:25.07 | 1:54.73 | 96382 | 105004 6 | 23:20.05 | 1:43.08 | 105005 | 112737 7 | 25:03.13 | 5:29.11 | 112738 | 137423 8 | 30:32.24 | 3:26.23 | 137424 | 152896 9 | 33:58.47 | 3:38.74 | 152897 | 169320 10 | 37:37.46 | 5:00.23 | 169321 | 191843 11 | 42:37.69 | 2:08.05 | 191844 | 201448 12 | 44:45.74 | 3:00.67 | 201449 | 215015 13 | 47:46.66 | 4:05.59 | 215016 | 233449 14 | 51:52.50 | 6:10.20 | 233450 | 261219 15 | 58:02.70 | 5:29.29 | 261220 | 285923 16 | 63:32.24 | 3:17.39 | 285924 | 300737
Характеристики диапазона извлечения и сообщения об ошибках
Выбранный диапазон
Имя файла E:\Temp\Cristal Trio - Live concert with orchestra and choir (2009)\Cristal Trio - Live concert with orchestra and choir.wav
Пиковый уровень 80.3 % Скорость извлечения 4.3 X Качество диапазона 100.0 % CRC теста B4D841B9 CRC копии B4D841B9 Копирование... OK
Ошибок не произошло
AccurateRip: сводка
Трек 1 отсутствует в базе данныхТрек 2 отсутствует в базе данныхТрек 3 отсутствует в базе данныхТрек 4 отсутствует в базе данныхТрек 5 отсутствует в базе данныхТрек 6 отсутствует в базе данныхТрек 7 отсутствует в базе данныхТрек 8 отсутствует в базе данныхТрек 9 отсутствует в базе данныхТрек 10 отсутствует в базе данныхТрек 11 отсутствует в базе данныхТрек 12 отсутствует в базе данныхТрек 13 отсутствует в базе данныхТрек 14 отсутствует в базе данныхТрек 15 отсутствует в базе данныхТрек 16 отсутствует в базе данных
Ни одного трека нет в базе AccurateRip
Конец отчёта
==== Контрольная сумма отчёта D31C91E02613D84E3631ED0861397202273D24AFDB1587CB2986A4E333F38EBD ====

Об исполнителе (группе)

Игорь Скляров - стеклянная арфа
Владимир Попрас - веррофон
Владимир Перминов - стеклянная флейта
www.crystaltrio.com

Об альбоме (сборнике)

Записано 25-26 декабря 2008 года в Государственной филармонии Ярославля.
В записи принимали участие:
Ярославский Академический Губернаторский Симфонический оркестр (камерный состав),
Филармоническая хоровая капелла "Ярославия".
Людмила Янчишина, заслуженная артистка России, солистка оркестра театра "Новая опера" (Москва) - арфа.
Агунда Кулаева, солистка театра "Новая Опера" (Москва), лауреат международного конкурса молодых оперных певцов имени Б.Христова (2009) - меццо-сопрано.
Дирижер - Дмитрий Волосников, театр "Новая Опера".
Звукорежиссер - Антон Милюков.
Сведение - Юрий Исаков, Polyphony Studio, Новосибирск.



Показать сообщения:    

Текущее время: 07-Дек 00:54

Часовой пояс: UTC + 3


Вы не можете начинать темы
Вы не можете отвечать на сообщения
Вы не можете редактировать свои сообщения
Вы не можете удалять свои сообщения
Вы не можете голосовать в опросах
Вы не можете прикреплять файлы к сообщениям
Вы не можете скачивать файлы