(Classical Crossover) Lucia Micarelli - Interlude - 2006, FLAC (tracks) lossless


 

[Цитировать]

Lucia Micarelli - Interlude
Жанр: Classical Crossover
Год издания диска: 2006
Аудиокодек: FLAC
Тип рипа: tracks
Битрейт аудио: lossless
Продолжительность: 00:36:48
Источник: скачано с
сайт-источник/ник/другое: internet
Наличие сканов в содержимом раздачи: нет
Треклист:
01. Grandfather Clock
02. Suite Populaire Espagnole, Asturiana
03. The Fish
04. Desired Constellation
05. Because of Toledo
06. Lucia Reads From Her Diary
07. Someone to Watch Over Me
08. Shostakovich String Quartet No. 7, Lento
09. Marmalade
10. Clair De Lune
11. Naima
12. Smile
13. Brooklyn-queens Expressway
14. Everything Must Change

Лог создания рипа

Exact Audio Copy V1.0 beta 3 from 29. August 2011
EAC extraction logfile from 14. March 2013, 17:00
Lucia Micarelli / Interlude
Used drive : SAMSUNG DVD-ROM SD-616E Adapter: 0 ID: 0
Read mode : SecureUtilize accurate stream : YesDefeat audio cache : YesMake use of C2 pointers : No
Read offset correction : 12Overread into Lead-In and Lead-Out : NoFill up missing offset samples with silence : YesDelete leading and trailing silent blocks : NoNull samples used in CRC calculations : YesUsed interface : Native Win32 interface for Win NT & 2000Gap handling : Appended to previous track
Used output format : User Defined EncoderSelected bitrate : 1024 kBit/sQuality : HighAdd ID3 tag : NoCommand line compressor : C:\Program Files (x86)\Exact Audio Copy\Flac\flac.exeAdditional command line options : -8 -V -T "ARTIST=%artist%" -T "TITLE=%title%" -T "ALBUM=%albumtitle%" -T "DATE=%year%" -T "TRACKNUMBER=%tracknr%" -T "GENRE=%genre%" -T "PERFORMER=%albuminterpret%" -T "COMPOSER=%composer%" %haslyrics%--tag-from-file=LYRICS="%lyricsfile%"%haslyrics% -T "ALBUMARTIST=%albumartist%" -T "DISCNUMBER=%cdnumber%" -T "TOTALDISCS=%totalcds%" -T "TOTALTRACKS=%numtracks%" -T "COMMENT=%comment%" %source% -o %dest%
TOC of the extracted CD
Track | Start | Length | Start sector | End sector --------------------------------------------------------- 1 | 0:00.00 | 2:57.04 | 0 | 13278 2 | 2:57.04 | 3:51.38 | 13279 | 30641 3 | 6:48.42 | 0:55.29 | 30642 | 34795 4 | 7:43.71 | 2:46.55 | 34796 | 47300 5 | 10:30.51 | 2:38.04 | 47301 | 59154 6 | 13:08.55 | 1:30.32 | 59155 | 65936 7 | 14:39.12 | 3:39.20 | 65937 | 82381 8 | 18:18.32 | 3:34.34 | 82382 | 98465 9 | 21:52.66 | 1:58.09 | 98466 | 107324 10 | 23:51.00 | 2:57.61 | 107325 | 120660 11 | 26:48.61 | 1:24.68 | 120661 | 127028 12 | 28:13.54 | 2:51.30 | 127029 | 139883 13 | 31:05.09 | 1:57.34 | 139884 | 148692 14 | 33:02.43 | 3:44.57 | 148693 | 165549
Track 1
Filename C:\Users\Mike-AMD\Desktop\2007 - Interlude [FLAC]\01 - Grandfather Clock.wav
Pre-gap length 0:00:02.00
Peak level 99.9 % Extraction speed 1.7 X Track quality 100.0 % Test CRC 276698A9 Copy CRC 276698A9 Accurately ripped (confidence 1) [189FBC38] (AR v2) Copy OK
Track 2
Filename C:\Users\Mike-AMD\Desktop\2007 - Interlude [FLAC]\02 - Suite populaire espagnole, asturiana.wav
Pre-gap length 0:00:01.76
Peak level 80.7 % Extraction speed 2.0 X Track quality 100.0 % Test CRC 73D6EF5C Copy CRC 73D6EF5C Accurately ripped (confidence 1) [57EAE632] (AR v2) Copy OK
Track 3
Filename C:\Users\Mike-AMD\Desktop\2007 - Interlude [FLAC]\03 - The Fish.wav
Peak level 25.3 % Extraction speed 1.4 X Track quality 100.0 % Test CRC D2AEDA46 Copy CRC D2AEDA46 Accurately ripped (confidence 1) [7465DF9A] (AR v2) Copy OK
Track 4
Filename C:\Users\Mike-AMD\Desktop\2007 - Interlude [FLAC]\04 - Desired Constellation.wav
Peak level 99.9 % Extraction speed 2.1 X Track quality 100.0 % Test CRC 7F6E342B Copy CRC 7F6E342B Accurately ripped (confidence 1) [662CD301] (AR v2) Copy OK
Track 5
Filename C:\Users\Mike-AMD\Desktop\2007 - Interlude [FLAC]\05 - Because of Toledo.wav
Pre-gap length 0:00:02.68
Peak level 99.9 % Extraction speed 2.0 X Track quality 99.9 % Test CRC 19E3BE2D Copy CRC 19E3BE2D Accurately ripped (confidence 1) [4D30EB86] (AR v2) Copy OK
Track 6
Filename C:\Users\Mike-AMD\Desktop\2007 - Interlude [FLAC]\06 - Lucia Reads From Her Diary.wav
Peak level 66.2 % Extraction speed 1.9 X Track quality 100.0 % Test CRC 8CE17A0A Copy CRC 8CE17A0A Accurately ripped (confidence 1) [71322B42] (AR v2) Copy OK
Track 7
Filename C:\Users\Mike-AMD\Desktop\2007 - Interlude [FLAC]\07 - Someone to Watch Over Me.wav
Peak level 93.4 % Extraction speed 2.5 X Track quality 100.0 % Test CRC E5057E1C Copy CRC E5057E1C Accurately ripped (confidence 1) [10E37EB1] (AR v2) Copy OK
Track 8
Filename C:\Users\Mike-AMD\Desktop\2007 - Interlude [FLAC]\08 - String Quartet No. 7, Lento.wav
Peak level 95.2 % Extraction speed 2.3 X Track quality 99.9 % Test CRC 693A0343 Copy CRC 693A0343 Accurately ripped (confidence 1) [150DE7B3] (AR v2) Copy OK
Track 9
Filename C:\Users\Mike-AMD\Desktop\2007 - Interlude [FLAC]\09 - Marmalade.wav
Peak level 99.9 % Extraction speed 2.4 X Track quality 100.0 % Test CRC 18A54BFA Copy CRC 18A54BFA Accurately ripped (confidence 1) [0156E0AE] (AR v2) Copy OK
Track 10
Filename C:\Users\Mike-AMD\Desktop\2007 - Interlude [FLAC]\10 - Clair de Lune.wav
Peak level 81.4 % Extraction speed 2.7 X Track quality 100.0 % Test CRC 099ED223 Copy CRC 099ED223 Accurately ripped (confidence 1) [1BDF3850] (AR v2) Copy OK
Track 11
Filename C:\Users\Mike-AMD\Desktop\2007 - Interlude [FLAC]\11 - Naima.wav
Peak level 79.4 % Extraction speed 2.3 X Track quality 100.0 % Test CRC 65BD35D5 Copy CRC 65BD35D5 Accurately ripped (confidence 1) [68DEE9A9] (AR v2) Copy OK
Track 12
Filename C:\Users\Mike-AMD\Desktop\2007 - Interlude [FLAC]\12 - Smile.wav
Pre-gap length 0:00:01.13
Peak level 66.6 % Extraction speed 2.8 X Track quality 100.0 % Test CRC 16086BD1 Copy CRC 16086BD1 Accurately ripped (confidence 1) [C9623AF9] (AR v2) Copy OK
Track 13
Filename C:\Users\Mike-AMD\Desktop\2007 - Interlude [FLAC]\13 - Brooklyn-Queens Expressway.wav
Peak level 84.1 % Extraction speed 2.6 X Track quality 100.0 % Test CRC 423E1628 Copy CRC 423E1628 Accurately ripped (confidence 1) [23912B34] (AR v2) Copy OK
Track 14
Filename C:\Users\Mike-AMD\Desktop\2007 - Interlude [FLAC]\14 - Everything Must Change.wav
Peak level 99.9 % Extraction speed 2.7 X Track quality 99.9 % Test CRC BD03257A Copy CRC BD03257A Accurately ripped (confidence 1) [CC39CB0D] (AR v2) Copy OK
All tracks accurately ripped
No errors occurred
End of status report
---- CUETools DB Plugin V2.1.3
[CTDB TOCID: lvp9ADSh9Z24xvD9DlPPsEW06rk-] found, Submit result: lvp9ADSh9Z24xvD9DlPPsEW06rk- has been confirmed[b7c6d39f] (1/1) Accurately ripped
==== Log checksum 5E718DEBC455EB2ED7EFB7E8CFFCA0BBFE340DCC905399E3BC3458FEC5F6760D ====

Об исполнителе (группе)

Лючия Микарелли (родилась 9 июля 1983 года в Квинсе) - талантливая американская скрипачка итальяно-корейского происхождения. Она взяла в руки скрипку, когда ей было всего три года, а уже в шесть лет впервые выступала с оркестром. Лючия стала известна широкой публике после концерта "Live at the Greek" Джоша Гробана, где выступила с несколькими сольными партиями, а также была первой скрипкой. В 2005 году выходит ее дебютный альбом "Music From The Farther Room", продюсерами которого стали Джош Гробан и его ментор Дэвид Фостер. В 2006 свет увидел второй альбом "Interlude". Отличительный стиль музыки Лючии Микарелли - виртуозное и экспрессивное исполнение известнейших рок-баллад. Сама она принимает активное участие в концертах рок-группы "Jethro Tull", а в 2007-2008 годах составила компанию Джошу Гробану в его туре "Awake", где выступила в качестве концертмейстера.

Об альбоме (сборнике)

Contemporary violin music, influenced by classical and jazz, with a focus on lyricism and emotional honesty.



Показать сообщения:    

Текущее время: 03-Дек 05:27

Часовой пояс: UTC + 3


Вы не можете начинать темы
Вы не можете отвечать на сообщения
Вы не можете редактировать свои сообщения
Вы не можете удалять свои сообщения
Вы не можете голосовать в опросах
Вы не можете прикреплять файлы к сообщениям
Вы не можете скачивать файлы