(Classical / Cello Quintet) Cellostrada Quintet "Acoustic Avenue" - 2011, WavPack (iso.wv) lossless


 

[Цитировать]

Cellostrada Quintet "Acoustic Avenue"
Жанр: Classical / Cello Quintet
Страна-производитель диска: Польша
Год издания диска: 2011
Издатель (лейбл): Selfproduction www.cellostrada.pl
Дата записи: July 2011
Аудиокодек: WavPack
Тип рипа: iso.wv
Битрейт аудио: lossless
Продолжительность: 00:50:10
Источник: собственный рип
Наличие сканов в содержимом раздачи: да
Треклист:
1. D. Shostakovich - Walz No. 2 (from the Jazz Suite No. 2)
2. E. Morricone - Gabriel's Oboe (from The Mission)
3. Aide Jano (Serbian folk song)
4. Tan Dun - Eternal Vow (from the Crouching Tiger, Hidden Dragon)
5. Jovano Jovanke (Macedonian folk song)
6. Clint Mansell - Requiem For A Dream
7. Ederlezi (Roman folk song)
8. Pink Martini - U Plavu Zoru
9. A. Kurylewicz - Polish Roads
10. A. Konarski - Drawsiness
11. Oddessa Bulgarish (Bulgarian folk song)
Исполнители:
Cellostrada cello quintet:
Miłosz Krcha
Radek Bukała
Michał Świstak
Michał Dąbek
Marcin Kulig

Лог создания рипа

Exact Audio Copy V1.0 beta 3 from 29. August 2011
Отчёт EAC об извлечении, выполненном 29. декабря 2013, 0:56
Cellostrada Quintet / Acoustic Avenue
Дисковод: hp DVDRAM GT30L Adapter: 2 ID: 0
Режим чтения : ДостоверностьИспользование точного потока : ДаОтключение кэша аудио : ДаИспользование указателей C2 : Нет
Коррекция смещения при чтении : 103Способность читать области Lead-in и Lead-out : НетЗаполнение пропущенных сэмплов тишиной : ДаУдаление блоков с тишиной в начале и конце : НетПри вычислениях CRC использовались нулевые сэмплы : ДаИнтерфейс : Встроенный Win32-интерфейс для Win NT/2000
Выходной формат : Пользовательский кодировщикВыбранный битрейт : 128 kBit/sКачество : ВысокийДобавление ID3-тега : НетУтилита сжатия : C:\Program Files (x86)\wavpack-4.70.0\wavpack.exeДополнительные параметры : -hm -w "Year=%year%" -w "Genre=%genre%" %source% %dest%
TOC извлечённого CD
Трек | Старт | Длительность | Начальный сектор | Конечный сектор --------------------------------------------------------------------- 1 | 0:00.00 | 3:40.37 | 0 | 16536 2 | 3:40.37 | 2:45.00 | 16537 | 28911 3 | 6:25.37 | 4:48.00 | 28912 | 50511 4 | 11:13.37 | 4:18.00 | 50512 | 69861 5 | 15:31.37 | 5:42.00 | 69862 | 95511 6 | 21:13.37 | 4:26.00 | 95512 | 115461 7 | 25:39.37 | 6:14.00 | 115462 | 143511 8 | 31:53.37 | 5:42.00 | 143512 | 169161 9 | 37:35.37 | 2:32.00 | 169162 | 180561 10 | 40:07.37 | 4:48.00 | 180562 | 202161 11 | 44:55.37 | 5:15.37 | 202162 | 225823
Характеристики диапазона извлечения и сообщения об ошибках
Выбранный диапазон
Имя файла C:\Users\Gera Tochkin\Music\Cellostrada Quintet\Acoustic Avenue\Cellostrada Quintet - Acoustic Avenue.wav
Пиковый уровень 100.0 % Скорость извлечения 2.1 X Качество диапазона 100.0 % CRC теста 72464990 CRC копии 72464990 Копирование... OK
Ошибок не произошло
AccurateRip: сводка
Трек 1 : извлечено точно (доверие 1) [CC64A9B8] (AR v2)Трек 2 : извлечено точно (доверие 1) [585B3351] (AR v2)Трек 3 : извлечено точно (доверие 1) [7BD4C368] (AR v2)Трек 4 : извлечено точно (доверие 1) [A11D40CD] (AR v2)Трек 5 : извлечено точно (доверие 1) [E91097E7] (AR v2)Трек 6 : извлечено точно (доверие 1) [E8E3F2C3] (AR v2)Трек 7 : извлечено точно (доверие 1) [D16F9E09] (AR v2)Трек 8 : извлечено точно (доверие 1) [33BAB745] (AR v2)Трек 9 : извлечено точно (доверие 1) [C8C50B29] (AR v2)Трек 10 : извлечено точно (доверие 1) [ACFCA276] (AR v2)Трек 11 : извлечено точно (доверие 1) [BA930A27] (AR v2)
Все треки извлечены точно
Конец отчёта
==== Контрольная сумма отчёта 0514718DBEBE2F04E131686CE6E1EE348B1348EFB1C7F8BAFDDEBB0AEAF1F21A ====

Содержание индексной карты (.CUE)

REM GENRE ClassicalREM DATE 2011REM DISCID 9C0BC20BREM COMMENT "ExactAudioCopy v1.0b3"PERFORMER "Cellostrada Quintet"TITLE "Acoustic Avenue"FILE "Cellostrada Quintet - Acoustic Avenue.wv" WAVE TRACK 01 AUDIO TITLE "D. Shostakovich - Walz No. 2 (from the Jazz Suite No. 2)" PERFORMER "Cellostrada Quintet" INDEX 01 00:00:00 TRACK 02 AUDIO TITLE "E. Morricone - Gabriel's Oboe (from The Mission)" PERFORMER "Cellostrada Quintet" INDEX 01 03:40:37 TRACK 03 AUDIO TITLE "Aide Jano (Serbian folk song)" PERFORMER "Cellostrada Quintet" INDEX 01 06:25:37 TRACK 04 AUDIO TITLE "Tan Dun - Eternal Vow (from the Crouching Tiger, Hidden Dragon)" PERFORMER "Cellostrada Quintet" INDEX 01 11:13:37 TRACK 05 AUDIO TITLE "Jovano Jovanke (Macedonian folk song)" PERFORMER "Cellostrada Quintet" INDEX 01 15:31:37 TRACK 06 AUDIO TITLE "Clint Mansell - Requiem For A Dream" PERFORMER "Cellostrada Quintet" INDEX 01 21:13:37 TRACK 07 AUDIO TITLE "Ederlezi (Roman folk song)" PERFORMER "Cellostrada Quintet" INDEX 01 25:39:37 TRACK 08 AUDIO TITLE "Pink Martini - U Plavu Zoru" PERFORMER "Cellostrada Quintet" INDEX 01 31:53:37 TRACK 09 AUDIO TITLE "A. Kurylewicz - Polish Roads" PERFORMER "Cellostrada Quintet" INDEX 01 37:35:37 TRACK 10 AUDIO TITLE "A. Konarski - Drawsiness" PERFORMER "Cellostrada Quintet" INDEX 01 40:07:37 TRACK 11 AUDIO TITLE "Oddessa Bulgarish (Bulgarian folk song)" PERFORMER "Cellostrada Quintet" INDEX 01 44:55:37

Содержимое контейнера

Artwork
Cellostrada Quintet - Acoustic Avenue.cue
Cellostrada Quintet - Acoustic Avenue.log
Cellostrada Quintet - Acoustic Avenue.wv
Доп. информация: Приобретено на уличном выступлении в центре города Бамберга (Германия)



Показать сообщения:    

Текущее время: 02-Дек 23:11

Часовой пояс: UTC + 3


Вы не можете начинать темы
Вы не можете отвечать на сообщения
Вы не можете редактировать свои сообщения
Вы не можете удалять свои сообщения
Вы не можете голосовать в опросах
Вы не можете прикреплять файлы к сообщениям
Вы не можете скачивать файлы