(Classical Crossover) Natasha Marsh - Amour - 2007, FLAC (tracks+.cue) lossless


 

[Цитировать]

Natasha Marsh - Amour
Жанр: Classical Crossover
Страна-производитель диска: UK
Год издания диска: 2007
Издатель (лейбл): EMI Classics
Номер по каталогу: CDANGE 17
Аудиокодек: FLAC
Тип рипа: tracks+.cue
Битрейт аудио: lossless
Продолжительность: 00:51:11
Источник: What.CD
Наличие сканов в содержимом раздачи: да
Треклист:
01. Si Un Jour (theme from "Jean de Florette") [03:56]
02. Gymnopedie No. 1 [03:36]
03. La Wally (Ebben? Ne Andro Lontano) [03:39]
04. Ai Giochi Addio (love theme from "Romeo & Juliet") [03:20]
05. Autumn Leaves [03:43]
06. Mi Mancherai (theme from "Il Postino") [04:09]
07. Chanson d'Amour [02:00]
08. He Moves, And Eyes Follow [03:24]
09. The First Time Ever I Saw Your Face [03:08]
10. Et Misericordia (Magnificat) [04:34]
11. La Delaissado (Songs of the Auvergne) [04:25]
12. Pur Ti Miro (featuring Fernando Lima) [03:42]
13. Les Filles de Cadiz [03:24]
14. Vocalise [04:05]

-

EAC

Exact Audio Copy V1.0 beta 3 from 29. August 2011
EAC extraction logfile from 2. October 2013, 21:22
Natasha Marsh / Amour
Used drive : ASUS BC-12B1ST Adapter: 3 ID: 0
Read mode : SecureUtilize accurate stream : YesDefeat audio cache : YesMake use of C2 pointers : No
Read offset correction : 702Overread into Lead-In and Lead-Out : NoFill up missing offset samples with silence : YesDelete leading and trailing silent blocks : NoNull samples used in CRC calculations : YesUsed interface : Native Win32 interface for Win NT & 2000Gap handling : Appended to previous track
Used output format : User Defined EncoderSelected bitrate : 128 kBit/sQuality : HighAdd ID3 tag : YesCommand line compressor : D:\My Programs\EAC\Exact Audio Copy\Flac\flac.exeAdditional command line options : -8 -V -T "ARTIST=%artist%" -T "TITLE=%title%" -T "ALBUM=%albumtitle%" -T "DATE=%year%" -T "TRACKNUMBER=%tracknr%" -T "GENRE=%genre%" -T "PERFORMER=%albuminterpret%" -T "COMPOSER=%composer%" %haslyrics%--tag-from-file=LYRICS="%lyricsfile%"%haslyrics% -T "ALBUMARTIST=%albumartist%" -T "DISCNUMBER=%cdnumber%" -T "TOTALDISCS=%totalcds%" -T "TOTALTRACKS=%numtracks%" -T "COMMENT=%comment%" %source% -o %dest%
TOC of the extracted CD
Track | Start | Length | Start sector | End sector --------------------------------------------------------- 1 | 0:00.00 | 4:00.58 | 0 | 18057 2 | 4:00.58 | 3:39.12 | 18058 | 34494 3 | 7:39.70 | 3:43.41 | 34495 | 51260 4 | 11:23.36 | 3:24.66 | 51261 | 66626 5 | 14:48.27 | 3:47.14 | 66627 | 83665 6 | 18:35.41 | 4:12.21 | 83666 | 102586 7 | 22:47.62 | 2:01.67 | 102587 | 111728 8 | 24:49.54 | 3:26.56 | 111729 | 127234 9 | 28:16.35 | 3:10.27 | 127235 | 141511 10 | 31:26.62 | 4:36.59 | 141512 | 162270 11 | 36:03.46 | 4:30.27 | 162271 | 182547 12 | 40:33.73 | 3:45.17 | 182548 | 199439 13 | 44:19.15 | 3:27.02 | 199440 | 214966 14 | 47:46.17 | 4:05.40 | 214967 | 233381
Track 1
Filename C:\Users\Guest\Desktop\Music\Natasha Marsh - Amour (2007) [FLAC]\01 - Si Un Jour (theme from 'Jean de Florette').wav
Pre-gap length 0:00:02.00
Peak level 93.7 % Extraction speed 5.4 X Track quality 100.0 % Test CRC 4B8DDC0D Copy CRC 4B8DDC0D Cannot be verified as accurate (confidence 12) [EBCF4F43], AccurateRip returned [BDDCB593] (AR v2) Copy OK
Track 2
Filename C:\Users\Guest\Desktop\Music\Natasha Marsh - Amour (2007) [FLAC]\02 - Gymnopedie No. 1.wav
Pre-gap length 0:00:03.70
Peak level 93.6 % Extraction speed 6.1 X Track quality 100.0 % Test CRC 71927AE2 Copy CRC 71927AE2 Cannot be verified as accurate (confidence 12) [F7117CEC], AccurateRip returned [D28A649B] (AR v2) Copy OK
Track 3
Filename C:\Users\Guest\Desktop\Music\Natasha Marsh - Amour (2007) [FLAC]\03 - La Wally (Ebben_ Ne Andro Lontano).wav
Pre-gap length 0:00:02.73
Peak level 93.7 % Extraction speed 6.7 X Track quality 100.0 % Test CRC C6E7C876 Copy CRC C6E7C876 Cannot be verified as accurate (confidence 12) [20BC8040], AccurateRip returned [37F09BBC] (AR v2) Copy OK
Track 4
Filename C:\Users\Guest\Desktop\Music\Natasha Marsh - Amour (2007) [FLAC]\04 - Ai Giochi Addio (love theme from 'Romeo & Juliet').wav
Pre-gap length 0:00:03.61
Peak level 93.6 % Extraction speed 6.8 X Track quality 100.0 % Test CRC B41E32EE Copy CRC B41E32EE Cannot be verified as accurate (confidence 12) [BE50B011], AccurateRip returned [1F696B2E] (AR v2) Copy OK
Track 5
Filename C:\Users\Guest\Desktop\Music\Natasha Marsh - Amour (2007) [FLAC]\05 - Autumn Leaves.wav
Pre-gap length 0:00:04.07
Peak level 66.9 % Extraction speed 7.5 X Track quality 100.0 % Test CRC 81F1EFB6 Copy CRC 81F1EFB6 Cannot be verified as accurate (confidence 12) [E6B68792], AccurateRip returned [194D06F5] (AR v2) Copy OK
Track 6
Filename C:\Users\Guest\Desktop\Music\Natasha Marsh - Amour (2007) [FLAC]\06 - Mi Mancherai (theme from 'Il Postino').wav
Pre-gap length 0:00:03.65
Peak level 98.7 % Extraction speed 8.0 X Track quality 100.0 % Test CRC 668FC0BB Copy CRC 668FC0BB Cannot be verified as accurate (confidence 12) [9C6335CD], AccurateRip returned [261AE7AA] (AR v2) Copy OK
Track 7
Filename C:\Users\Guest\Desktop\Music\Natasha Marsh - Amour (2007) [FLAC]\07 - Chanson d'Amour.wav
Pre-gap length 0:00:02.57
Peak level 98.8 % Extraction speed 7.2 X Track quality 100.0 % Test CRC 2CCE5DFB Copy CRC 2CCE5DFB Cannot be verified as accurate (confidence 12) [A179E7F5], AccurateRip returned [F8A192DC] (AR v2) Copy OK
Track 8
Filename C:\Users\Guest\Desktop\Music\Natasha Marsh - Amour (2007) [FLAC]\08 - He Moves, And Eyes Follow.wav
Pre-gap length 0:00:01.61
Peak level 89.1 % Extraction speed 7.5 X Track quality 100.0 % Test CRC 9043BC66 Copy CRC 9043BC66 Cannot be verified as accurate (confidence 12) [7888EF68], AccurateRip returned [1816A32E] (AR v2) Copy OK
Track 9
Filename C:\Users\Guest\Desktop\Music\Natasha Marsh - Amour (2007) [FLAC]\09 - The First Time Ever I Saw Your Face.wav
Pre-gap length 0:00:02.43
Peak level 93.5 % Extraction speed 8.5 X Track quality 100.0 % Test CRC C80C17C7 Copy CRC C80C17C7 Cannot be verified as accurate (confidence 12) [014A9E53], AccurateRip returned [AE84C476] (AR v2) Copy OK
Track 10
Filename C:\Users\Guest\Desktop\Music\Natasha Marsh - Amour (2007) [FLAC]\10 - Et Misericordia (Magnificat).wav
Pre-gap length 0:00:01.61
Peak level 93.7 % Extraction speed 9.0 X Track quality 100.0 % Test CRC 09AEE4D4 Copy CRC 09AEE4D4 Cannot be verified as accurate (confidence 12) [5DAB81E3], AccurateRip returned [68F1C831] (AR v2) Copy OK
Track 11
Filename C:\Users\Guest\Desktop\Music\Natasha Marsh - Amour (2007) [FLAC]\11 - La Delaissado (Songs of the Auvergne).wav
Pre-gap length 0:00:02.22
Peak level 93.6 % Extraction speed 9.4 X Track quality 100.0 % Test CRC EAD8C384 Copy CRC EAD8C384 Cannot be verified as accurate (confidence 12) [62D48298], AccurateRip returned [499AB02D] (AR v2) Copy OK
Track 12
Filename C:\Users\Guest\Desktop\Music\Natasha Marsh - Amour (2007) [FLAC]\12 - Pur Ti Miro (featuring Fernando Lima).wav
Pre-gap length 0:00:04.47
Peak level 82.1 % Extraction speed 9.8 X Track quality 100.0 % Test CRC 356D390E Copy CRC 356D390E Cannot be verified as accurate (confidence 12) [F02CAF14], AccurateRip returned [9120FC95] (AR v2) Copy OK
Track 13
Filename C:\Users\Guest\Desktop\Music\Natasha Marsh - Amour (2007) [FLAC]\13 - Les Filles de Cadiz.wav
Pre-gap length 0:00:03.10
Peak level 97.7 % Extraction speed 9.5 X Track quality 100.0 % Test CRC 8B0F013C Copy CRC 8B0F013C Cannot be verified as accurate (confidence 12) [02F774CE], AccurateRip returned [7A3FCE97] (AR v2) Copy OK
Track 14
Filename C:\Users\Guest\Desktop\Music\Natasha Marsh - Amour (2007) [FLAC]\14 - Vocalise.wav
Pre-gap length 0:00:02.46
Peak level 87.0 % Extraction speed 6.2 X Track quality 100.0 % Test CRC BFE61329 Copy CRC BFE61329 Cannot be verified as accurate (confidence 12) [6BD94287], AccurateRip returned [31077DF8] (AR v2) Copy OK
No tracks could be verified as accurateYou may have a different pressing from the one(s) in the database
No errors occurred
End of status report
==== Log checksum 3EF8501232BA6C46D3F459DF817EFE8786CC390200237AAB72B2907991BE51BB ====

CUE

REM GENRE OperaREM DATE 2007REM DISCID D90C270EREM COMMENT "ExactAudioCopy v1.0b3"CATALOG 0094637493526PERFORMER "Natasha Marsh"TITLE "Amour"FILE "01 - Si Un Jour (theme from 'Jean de Florette').wav" WAVE TRACK 01 AUDIO TITLE "Si Un Jour (theme from 'Jean de Florette')" PERFORMER "Natasha Marsh" ISRC GBAYE0601726 INDEX 01 00:00:00 TRACK 02 AUDIO TITLE "Gymnopedie No. 1" PERFORMER "Natasha Marsh" ISRC GBAYE0601723 INDEX 00 03:56:63FILE "02 - Gymnopedie No. 1.wav" WAVE INDEX 01 00:00:00 TRACK 03 AUDIO TITLE "La Wally (Ebben? Ne Andro Lontano)" PERFORMER "Natasha Marsh" ISRC GBAYE0601720 INDEX 00 03:36:14FILE "03 - La Wally (Ebben_ Ne Andro Lontano).wav" WAVE INDEX 01 00:00:00 TRACK 04 AUDIO TITLE "Ai Giochi Addio (love theme from 'Romeo & Juliet')" PERFORMER "Natasha Marsh" ISRC GBAYE0601721 INDEX 00 03:39:55FILE "04 - Ai Giochi Addio (love theme from 'Romeo & Juliet').wav" WAVE INDEX 01 00:00:00 TRACK 05 AUDIO TITLE "Autumn Leaves" PERFORMER "Natasha Marsh" ISRC GBAYE0601707 INDEX 00 03:20:59FILE "05 - Autumn Leaves.wav" WAVE INDEX 01 00:00:00 TRACK 06 AUDIO TITLE "Mi Mancherai (theme from 'Il Postino')" PERFORMER "Natasha Marsh" ISRC GBAYE0601729 INDEX 00 03:43:24FILE "06 - Mi Mancherai (theme from 'Il Postino').wav" WAVE INDEX 01 00:00:00 TRACK 07 AUDIO TITLE "Chanson d'Amour" PERFORMER "Natasha Marsh" ISRC GBAYE0601732 INDEX 00 04:09:39FILE "07 - Chanson d'Amour.wav" WAVE INDEX 01 00:00:00 TRACK 08 AUDIO TITLE "He Moves, And Eyes Follow" PERFORMER "Natasha Marsh" ISRC GBAYE0601724 INDEX 00 02:00:06FILE "08 - He Moves, And Eyes Follow.wav" WAVE INDEX 01 00:00:00 TRACK 09 AUDIO TITLE "The First Time Ever I Saw Your Face" PERFORMER "Natasha Marsh" ISRC GBAYE0601727 INDEX 00 03:24:13FILE "09 - The First Time Ever I Saw Your Face.wav" WAVE INDEX 01 00:00:00 TRACK 10 AUDIO TITLE "Et Misericordia (Magnificat)" PERFORMER "Natasha Marsh" ISRC GBAYE0601369 INDEX 00 03:08:41FILE "10 - Et Misericordia (Magnificat).wav" WAVE INDEX 01 00:00:00 TRACK 11 AUDIO TITLE "La Delaissado (Songs of the Auvergne)" PERFORMER "Natasha Marsh" ISRC GBAYE0601676 INDEX 00 04:34:37FILE "11 - La Delaissado (Songs of the Auvergne).wav" WAVE INDEX 01 00:00:00 TRACK 12 AUDIO TITLE "Pur Ti Miro (featuring Fernando Lima)" PERFORMER "Natasha Marsh" ISRC GBAYE0601675 INDEX 00 04:25:55FILE "12 - Pur Ti Miro (featuring Fernando Lima).wav" WAVE INDEX 01 00:00:00 TRACK 13 AUDIO TITLE "Les Filles de Cadiz" PERFORMER "Natasha Marsh" ISRC GBAYE0601298 INDEX 00 03:42:07FILE "13 - Les Filles de Cadiz.wav" WAVE INDEX 01 00:00:00 TRACK 14 AUDIO TITLE "Vocalise" PERFORMER "Natasha Marsh" ISRC GBAYE0601728 INDEX 00 03:24:31FILE "14 - Vocalise.wav" WAVE INDEX 01 00:00:00

AUDIOCHECKER

AUDIOCHECKER v2.0 beta (build 457) - by Dester - opdester@freemail.hu~~~~~~~~~~~~~~~~~~~~~~~~~~~~~~~~~~-=== НЕ РЕДАКТИРУЙТЕ ЭТОТ ФАЙЛ! ===-
Путь: ...\2007 - Amour
01 -=- 01 - Si Un Jour (theme from 'Jean de Florette').flac -=- CDDA (100%)02 -=- 02 - Gymnopedie No. 1.flac -=- CDDA (99%)03 -=- 03 - La Wally (Ebben_ Ne Andro Lontano).flac -=- CDDA (100%)04 -=- 04 - Ai Giochi Addio (love theme from 'Romeo & Juliet').flac -=- CDDA (100%)05 -=- 05 - Autumn Leaves.flac -=- CDDA (100%)06 -=- 06 - Mi Mancherai (theme from 'Il Postino').flac -=- CDDA (99%)07 -=- 07 - Chanson d'Amour.flac -=- CDDA (100%)08 -=- 08 - He Moves, And Eyes Follow.flac -=- CDDA (100%)09 -=- 09 - The First Time Ever I Saw Your Face.flac -=- CDDA (100%)10 -=- 10 - Et Misericordia (Magnificat).flac -=- CDDA (100%)11 -=- 11 - La Delaissado (Songs of the Auvergne).flac -=- CDDA (100%)12 -=- 12 - Pur Ti Miro (featuring Fernando Lima).flac -=- CDDA (100%)13 -=- 13 - Les Filles de Cadiz.flac -=- CDDA (100%)14 -=- 14 - Vocalise.flac -=- CDDA (100%)
Сводка 99,86% CDDA
53702084



Показать сообщения:    

Текущее время: 09-Дек 12:42

Часовой пояс: UTC + 3


Вы не можете начинать темы
Вы не можете отвечать на сообщения
Вы не можете редактировать свои сообщения
Вы не можете удалять свои сообщения
Вы не можете голосовать в опросах
Вы не можете прикреплять файлы к сообщениям
Вы не можете скачивать файлы