(Classical Crossover) Giorgia Fumanti - From My Heart - 2007, WavPack (image+.cue) lossless


 

[Цитировать]

Giorgia Fumanti - From My Heart
Жанр: Classical Crossover
Страна-производитель диска: EU
Год издания диска: 2007
Издатель (лейбл): Manhattan Records
Номер по каталогу: 0946 3 32175 2 2
Страна: Italy
Аудиокодек: WavPack
Тип рипа: image+.cue
Битрейт аудио: lossless
Продолжительность: 00:49:39
Источник (релизер): NetLab (shatterhand, все благодарности отправляются ему)
Наличие сканов в содержимом раздачи: да
Треклист:
01. Your Love (English trans. of theme from Once Upon a Time in the West) [3:51]
02. Peace Of Heaven [4:19]
03. A Rose Among Thorns (Variation on "Nella Fantasia", theme from The Mission) [4:48]
04. Campi D'Oro (Italian trans. of Sting's "Fields of Gold") [4:04]
05. Il Mare Calmo Della Sera [4:47]
06. I've Dreamed Of You [4:48]
07. Espiritu [3:08]
08. My Heart And I [4:34]
09. For Always [4:11]
10. Aria [3:19]
11. Cinema Paradiso (Love theme from Cinema Paradiso) [3:21]
12. Volero [4:24]

-

EAC

Exact Audio Copy V1.0 beta 3 from 29. August 2011
EAC extraction logfile from 17. March 2012, 12:52
Giorgia Fumanti / From My Heart
Used drive : PIONEER DVD-ROM DVD-116 Adapter: 1 ID: 0
Read mode : SecureUtilize accurate stream : YesDefeat audio cache : YesMake use of C2 pointers : No
Read offset correction : 102Overread into Lead-In and Lead-Out : NoFill up missing offset samples with silence : YesDelete leading and trailing silent blocks : NoNull samples used in CRC calculations : YesUsed interface : Native Win32 interface for Win NT & 2000
Used output format : Internal WAV RoutinesSample format : 44.100 Hz; 16 Bit; Stereo
TOC of the extracted CD
Track | Start | Length | Start sector | End sector --------------------------------------------------------- 1 | 0:00.00 | 3:51.69 | 0 | 17393 2 | 3:51.69 | 4:19.24 | 17394 | 36842 3 | 8:11.18 | 4:48.48 | 36843 | 58490 4 | 12:59.66 | 4:04.13 | 58491 | 76803 5 | 17:04.04 | 4:47.55 | 76804 | 98383 6 | 21:51.59 | 4:48.36 | 98384 | 120019 7 | 26:40.20 | 3:08.24 | 120020 | 134143 8 | 29:48.44 | 4:34.15 | 134144 | 154708 9 | 34:22.59 | 4:11.63 | 154709 | 173596 10 | 38:34.47 | 3:19.46 | 173597 | 188567 11 | 41:54.18 | 3:21.12 | 188568 | 203654 12 | 45:15.30 | 4:24.32 | 203655 | 223486
Range status and errors
Selected range
Filename E:\temp\Giorgia Fumanti - From My Heart\Giorgia Fumanti - From My Heart.wav
Peak level 100.0 % Extraction speed 4.3 X Range quality 100.0 % Test CRC 4E9F1341 Copy CRC 4E9F1341 Copy OK
No errors occurred
AccurateRip summary
Track 1 accurately ripped (confidence 10) [BE8DDDEA] (AR v1)Track 2 accurately ripped (confidence 10) [B6047DB6] (AR v1)Track 3 accurately ripped (confidence 10) [F5F67C26] (AR v1)Track 4 accurately ripped (confidence 10) [02D0901C] (AR v1)Track 5 accurately ripped (confidence 10) [FCE585A8] (AR v1)Track 6 accurately ripped (confidence 10) [A2A38E34] (AR v1)Track 7 accurately ripped (confidence 10) [02F56752] (AR v1)Track 8 accurately ripped (confidence 10) [94ADBA1B] (AR v1)Track 9 accurately ripped (confidence 10) [384D74DA] (AR v1)Track 10 accurately ripped (confidence 10) [C20076B9] (AR v1)Track 11 accurately ripped (confidence 10) [4AD772D1] (AR v1)Track 12 accurately ripped (confidence 10) [6FD36CE9] (AR v1)
All tracks accurately ripped
End of status report

CUE

REM GENRE "Classical"REM DATE 2007REM DISCID 8C0BA30CREM COMMENT "ExactAudioCopy v1.0b3"PERFORMER "Giorgia Fumanti"TITLE "From My Heart"FILE "Giorgia Fumanti - From My Heart.wv" WAVE TRACK 01 AUDIO TITLE "Your Love" PERFORMER "Giorgia Fumanti" INDEX 01 00:00:00 TRACK 02 AUDIO TITLE "Peace Of Heaven" PERFORMER "Giorgia Fumanti" INDEX 00 03:51:46 INDEX 01 03:51:69 TRACK 03 AUDIO TITLE "A Rose Among Thorns" PERFORMER "Giorgia Fumanti" INDEX 00 08:11:07 INDEX 01 08:11:18 TRACK 04 AUDIO TITLE "Campi D'Oro" PERFORMER "Giorgia Fumanti" INDEX 00 12:59:55 INDEX 01 12:59:66 TRACK 05 AUDIO TITLE "Il Mare Calmo Della Sera" PERFORMER "Giorgia Fumanti" INDEX 00 17:04:02 INDEX 01 17:04:04 TRACK 06 AUDIO TITLE "I've Dreamed Of You" PERFORMER "Giorgia Fumanti" INDEX 00 21:51:48 INDEX 01 21:51:59 TRACK 07 AUDIO TITLE "Espiritu" PERFORMER "Giorgia Fumanti" INDEX 00 26:40:08 INDEX 01 26:40:20 TRACK 08 AUDIO TITLE "My Heart And I" PERFORMER "Giorgia Fumanti" INDEX 01 29:48:44 TRACK 09 AUDIO TITLE "For Always" PERFORMER "Giorgia Fumanti" INDEX 00 34:22:57 INDEX 01 34:22:59 TRACK 10 AUDIO TITLE "Aria" PERFORMER "Giorgia Fumanti" INDEX 00 38:34:43 INDEX 01 38:34:47 TRACK 11 AUDIO TITLE "Cinema Paradiso" PERFORMER "Giorgia Fumanti" INDEX 00 41:54:13 INDEX 01 41:54:18 TRACK 12 AUDIO TITLE "Volero" PERFORMER "Giorgia Fumanti" INDEX 00 45:15:23 INDEX 01 45:15:30
-



Показать сообщения:    

Текущее время: 05-Дек 19:38

Часовой пояс: UTC + 3


Вы не можете начинать темы
Вы не можете отвечать на сообщения
Вы не можете редактировать свои сообщения
Вы не можете удалять свои сообщения
Вы не можете голосовать в опросах
Вы не можете прикреплять файлы к сообщениям
Вы не можете скачивать файлы