(Оркестровая музыка) Torsten Rasch - Mein Herz Brennt (Based on Music of Rammstein) - 2003, FLAC (tracks) lossless


 

[Цитировать]

Torsten Rasch - Mein Herz Brennt (Based on Music of Rammstein)
Жанр: Оркестровая музыка
Страна-производитель диска: Germany
Год издания диска: 2003
Издатель (лейбл): Universal
Номер по каталогу: 476 117-0 [18]
Аудиокодек: FLAC
Тип рипа: tracks
Битрейт аудио: lossless
Продолжительность: 01:05:17
Источник: собственный рип
Наличие сканов в содержимом раздачи: нет
Треклист:
1. Mutter Orchesterlied I
2. Herzeleid Orchesterlied II
3. Seemann Orchesterlied III
4. Sehnsucht Orchesterlied IV
5. Mein Herz Brennt Orchesterlied V
6. Nebel Orchesterlied VI
7. Ich Will Orchesterlied VII
8. Alter Mann Orchesterlied VIII
9. Stimmen Aus Dem Kissen (Variationen Uber Rammstein)
Исполнители:
Composer: Torsten Rasch
Conductor: John Carewe
Orchestra: Dresdner Sinfoniker

Лог создания рипа

Exact Audio Copy V1.0 beta 3 from 29. August 2011
Отчёт EAC об извлечении, выполненном 23. ноября 2013, 8:47
Torsten Rasch / Mein Herz brennt
Дисковод: HL-DT-STBD-RE BH10LS30 Adapter: 0 ID: 0
Режим чтения : ДостоверностьИспользование точного потока : ДаОтключение кэша аудио : ДаИспользование указателей C2 : Нет
Коррекция смещения при чтении : 667Способность читать области Lead-in и Lead-out : НетЗаполнение пропущенных сэмплов тишиной : ДаУдаление блоков с тишиной в начале и конце : НетПри вычислениях CRC использовались нулевые сэмплы : ДаИнтерфейс : Встроенный Win32-интерфейс для Win NT/2000Обработка зазоров : Добавлено к предыдущему треку
Выходной формат : Пользовательский кодировщикВыбранный битрейт : 128 kBit/sКачество : ВысокийДобавление ID3-тега : НетУтилита сжатия : C:\Program Files (x86)\FLAC\flac.exeДополнительные параметры : -V -8 -T "Date=%year%" -T "Genre=%genre%" %source%
TOC извлечённого CD
Трек | Старт | Длительность | Начальный сектор | Конечный сектор --------------------------------------------------------------------- 1 | 0:00.00 | 5:12.40 | 0 | 23439 2 | 5:12.40 | 4:40.20 | 23440 | 44459 3 | 9:52.60 | 9:27.32 | 44460 | 87016 4 | 19:20.17 | 7:14.55 | 87017 | 119621 5 | 26:34.72 | 5:37.05 | 119622 | 144901 6 | 32:12.02 | 6:29.37 | 144902 | 174113 7 | 38:41.39 | 5:34.60 | 174114 | 199223 8 | 44:16.24 | 9:53.59 | 199224 | 243757 9 | 54:10.08 | 11:07.58 | 243758 | 293840
Трек 1
Имя файла C:\Users\xXrammXx\Desktop\Torsten Rasch - Mein Herz Brennt 2003\01 Mutter Orchesterlied I.wav
Длина предзазора 0:00:02.00
Пиковый уровень 99.2 % Скорость извлечения 1.3 X Качество трека 100.0 % CRC теста 02034F7E CRC копии 02034F7E Копирование... OK
Трек 2
Имя файла C:\Users\xXrammXx\Desktop\Torsten Rasch - Mein Herz Brennt 2003\02 Herzeleid Orchesterlied II.wav
Длина предзазора 0:00:00.33
Пиковый уровень 99.1 % Скорость извлечения 1.4 X Качество трека 100.0 % CRC теста C2B9F57F CRC копии C2B9F57F Копирование... OK
Трек 3
Имя файла C:\Users\xXrammXx\Desktop\Torsten Rasch - Mein Herz Brennt 2003\03 Seemann Orchesterlied III.wav
Длина предзазора 0:00:01.04
Пиковый уровень 99.1 % Скорость извлечения 1.7 X Качество трека 100.0 % CRC теста F57C1E1B CRC копии F57C1E1B Копирование... OK
Трек 4
Имя файла C:\Users\xXrammXx\Desktop\Torsten Rasch - Mein Herz Brennt 2003\04 Sehnsucht Orchesterlied IV.wav
Длина предзазора 0:00:01.41
Пиковый уровень 99.1 % Скорость извлечения 1.9 X Качество трека 100.0 % CRC теста F5374193 CRC копии F5374193 Копирование... OK
Трек 5
Имя файла C:\Users\xXrammXx\Desktop\Torsten Rasch - Mein Herz Brennt 2003\05 Mein Herz brennt Orchesterlied V.wav
Длина предзазора 0:00:00.41
Пиковый уровень 99.1 % Скорость извлечения 2.0 X Качество трека 100.0 % CRC теста 96302828 CRC копии 96302828 Копирование... OK
Трек 6
Имя файла C:\Users\xXrammXx\Desktop\Torsten Rasch - Mein Herz Brennt 2003\06 Nebel Orchesterlied VI.wav
Длина предзазора 0:00:01.01
Пиковый уровень 99.2 % Скорость извлечения 2.1 X Качество трека 100.0 % CRC теста A1D30307 CRC копии A1D30307 Копирование... OK
Трек 7
Имя файла C:\Users\xXrammXx\Desktop\Torsten Rasch - Mein Herz Brennt 2003\07 Ich will Orchesterlied VII.wav
Длина предзазора 0:00:00.55
Пиковый уровень 99.2 % Скорость извлечения 2.2 X Качество трека 100.0 % CRC теста 46B3E52F CRC копии 46B3E52F Копирование... OK
Трек 8
Имя файла C:\Users\xXrammXx\Desktop\Torsten Rasch - Mein Herz Brennt 2003\08 Alter Mann Orchesterlied VIII.wav
Длина предзазора 0:00:00.26
Пиковый уровень 99.1 % Скорость извлечения 2.4 X Качество трека 100.0 % CRC теста C53FFC76 CRC копии C53FFC76 Копирование... OK
Трек 9
Имя файла C:\Users\xXrammXx\Desktop\Torsten Rasch - Mein Herz Brennt 2003\09 Stimmen aus dem Kissen Variationen uber Rammstein.wav
Длина предзазора 0:00:03.35
Пиковый уровень 99.1 % Скорость извлечения 2.6 X Качество трека 100.0 % CRC теста E2445769 CRC копии E2445769 Копирование... OK
Ошибок не произошло
Конец отчёта
==== Контрольная сумма отчёта 1111FAE12D0F035F12DC7C87FF750F1B964EF44F3421D069F8388AE7EB255D63 ====

Содержание индексной карты (.CUE)

REM GENRE VocalREM DATE 2003REM DISCID 770F4D09REM COMMENT "ExactAudioCopy v1.0b3"PERFORMER "Torsten Rasch"TITLE "Mein Herz brennt"FILE "01 Mutter Orchesterlied I.wav" WAVE TRACK 01 AUDIO TITLE "Mutter Orchesterlied I" PERFORMER "Torsten Rasch" INDEX 01 00:00:00 TRACK 02 AUDIO TITLE "Herzeleid Orchesterlied II" PERFORMER "Torsten Rasch" INDEX 00 05:12:07FILE "02 Herzeleid Orchesterlied II.wav" WAVE INDEX 01 00:00:00 TRACK 03 AUDIO TITLE "Seemann Orchesterlied III" PERFORMER "Torsten Rasch" INDEX 00 04:39:16FILE "03 Seemann Orchesterlied III.wav" WAVE INDEX 01 00:00:00 TRACK 04 AUDIO TITLE "Sehnsucht Orchesterlied IV" PERFORMER "Torsten Rasch" INDEX 00 09:25:66FILE "04 Sehnsucht Orchesterlied IV.wav" WAVE INDEX 01 00:00:00 TRACK 05 AUDIO TITLE "Mein Herz brennt Orchesterlied V" PERFORMER "Torsten Rasch" INDEX 00 07:14:14FILE "05 Mein Herz brennt Orchesterlied V.wav" WAVE INDEX 01 00:00:00 TRACK 06 AUDIO TITLE "Nebel Orchesterlied VI" PERFORMER "Torsten Rasch" INDEX 00 05:36:04FILE "06 Nebel Orchesterlied VI.wav" WAVE INDEX 01 00:00:00 TRACK 07 AUDIO TITLE "Ich will Orchesterlied VII" PERFORMER "Torsten Rasch" INDEX 00 06:28:57FILE "07 Ich will Orchesterlied VII.wav" WAVE INDEX 01 00:00:00 TRACK 08 AUDIO TITLE "Alter Mann Orchesterlied VIII" PERFORMER "Torsten Rasch" INDEX 00 05:34:34FILE "08 Alter Mann Orchesterlied VIII.wav" WAVE INDEX 01 00:00:00 TRACK 09 AUDIO TITLE "Stimmen aus dem Kissen Variationen uber Rammstein" PERFORMER "Torsten Rasch" INDEX 00 09:50:24FILE "09 Stimmen aus dem Kissen Variationen uber Rammstein.wav" WAVE INDEX 01 00:00:00

Лог проверки качества

AUDIOCHECKER v2.0 beta (build 457) - by Dester - opdester@freemail.hu~~~~~~~~~~~~~~~~~~~~~~~~~~~~~~~~~~-=== DO NOT EDIT THIS FILE! ===-
Path: ...\Torsten Rasch - Mein Herz Brennt 2003
1 -=- 01 Mutter Orchesterlied I.flac -=- CDDA (100%)2 -=- 02 Herzeleid Orchesterlied II.flac -=- CDDA (100%)3 -=- 03 Seemann Orchesterlied III.flac -=- CDDA (100%)4 -=- 04 Sehnsucht Orchesterlied IV.flac -=- CDDA (100%)5 -=- 05 Mein Herz brennt Orchesterlied V.flac -=- CDDA (100%)6 -=- 06 Nebel Orchesterlied VI.flac -=- CDDA (100%)7 -=- 07 Ich will Orchesterlied VII.flac -=- CDDA (100%)8 -=- 08 Alter Mann Orchesterlied VIII.flac -=- CDDA (100%)9 -=- 09 Stimmen aus dem Kissen Variationen uber Rammstein.flac -=- CDDA (100%)
Summary 100,00% CDDA
117364436
Доп. информация: "Mein Herz brennt", song cycle based on the music of Rammstein, for bass baritone, soprano, chorus, speaker & orchestra
Composed by Lindemann, Schneider, Lorenz, Landers, Kruspe-Bernstein with Arayik Bakhtikyan, Rene Pape, Katharina Thalbach, Jana Buchner conducted by John Carewe
"Stimmen aus dem Kissen, variations on Rammstein", tone poem for orchestra composed by Torsten Rasch with Rene Pape, Katharina Thalbach conducted by John Carewe



Показать сообщения:    

Текущее время: 19-Янв 22:15

Часовой пояс: UTC + 3


Вы не можете начинать темы
Вы не можете отвечать на сообщения
Вы не можете редактировать свои сообщения
Вы не можете удалять свои сообщения
Вы не можете голосовать в опросах
Вы не можете прикреплять файлы к сообщениям
Вы не можете скачивать файлы