(Modern Instrumental Classical Music) Геннадий Кудревич - Волшебная Флейта - 2002, FLAC (image+.cue) lossless


 

[Цитировать]

Геннадий Кудревич / Волшебная Флейта
Жанр: Modern Instrumental Classical Music
Страна-производитель диска: Россия
Год издания диска: 2002
Аудиокодек: FLAC
Тип рипа: image+.cue
Битрейт аудио: lossless
Продолжительность: 48:34
Источник: собственный рип
Наличие сканов в содержимом раздачи: да
Треклист:
01. Полонез (Михаил Огинский) [0:03:49.05]
02. Ave Maria (Франц Шуберт) [0:03:46.42]
03. Шутка (Иоганн Себастьян Бах) [0:01:26.56]
04. Мелодия (Кристоф Виллибальд Глюк) [0:03:34.17]
05. Турецкое Рондо (Вольфганг Амадей Моцарт) [0:03:09.38]
06. Серенада (Шуберт) [0:03:46.52]
07. Танец С Саблями (Арам Хачатурян) [0:02:13.63]
08. Ave Maria (Бах - Шарль Гуно) [0:02:51.11]
09. Венгерский Танец №5 (Иоганнес Брамс) [0:02:29.11]
10. Адажио (Моцарт) [0:02:59.58]
11. Менуэт (Луиджи Боккерини) [0:03:17.41]
12. Ария (Бах) [0:05:07.29]
13. Аллегро (Георг Фридрих Гендель) [0:01:52.14]
14. Сицилиана (Бах) [0:02:48.19]
15. Тамбурин (Госсек) [0:01:34.61]
16. Менуэт (Моцарт) [0:02:12.32]
17. Музыкальный Момент (Шуберт) [0:01:35.04]

Лог создания рипа

Exact Audio Copy V1.0 beta 3 from 29. August 2011
Отчёт EAC об извлечении, выполненном 22. ноября 2013, 10:54
Геннадий Кудревич / Волшебная Флейта
Дисковод: TSSTcorpCDDVDW SH-224DB Adapter: 1 ID: 0
Режим чтения : ДостоверностьИспользование точного потока : ДаОтключение кэша аудио : ДаИспользование указателей C2 : Нет
Коррекция смещения при чтении : 6Способность читать области Lead-in и Lead-out : НетЗаполнение пропущенных сэмплов тишиной : ДаУдаление блоков с тишиной в начале и конце : НетПри вычислениях CRC использовались нулевые сэмплы : ДаИнтерфейс : Встроенный Win32-интерфейс для Win NT/2000
Выходной формат : Пользовательский кодировщикВыбранный битрейт : 768 kBit/sКачество : ВысокийДобавление ID3-тега : НетУтилита сжатия : C:\Program Files\Exact Audio Copy\Flac\flac.exeДополнительные параметры : -V -8 -T "Date=%year%" -T "Genre=%genre%" %source%
TOC извлечённого CD
Трек | Старт | Длительность | Начальный сектор | Конечный сектор --------------------------------------------------------------------- 1 | 0:00.00 | 3:49.05 | 0 | 17179 2 | 3:49.05 | 3:46.42 | 17180 | 34171 3 | 7:35.47 | 1:26.56 | 34172 | 40677 4 | 9:02.28 | 3:34.17 | 40678 | 56744 5 | 12:36.45 | 3:09.38 | 56745 | 70957 6 | 15:46.08 | 3:46.52 | 70958 | 87959 7 | 19:32.60 | 2:13.63 | 87960 | 97997 8 | 21:46.48 | 2:51.11 | 97998 | 110833 9 | 24:37.59 | 2:29.11 | 110834 | 122019 10 | 27:06.70 | 2:59.58 | 122020 | 135502 11 | 30:06.53 | 3:17.41 | 135503 | 150318 12 | 33:24.19 | 5:07.29 | 150319 | 173372 13 | 38:31.48 | 1:52.14 | 173373 | 181786 14 | 40:23.62 | 2:48.19 | 181787 | 194405 15 | 43:12.06 | 1:34.61 | 194406 | 201516 16 | 44:46.67 | 2:12.32 | 201517 | 211448 17 | 46:59.24 | 1:35.04 | 211449 | 218577
Характеристики диапазона извлечения и сообщения об ошибках
Выбранный диапазон
Имя файла D:\lo$$le$$\Г.Кудревич'02\Геннадий Кудревич - Волшебная Флейта.wav
Пиковый уровень 100.0 % Скорость извлечения 7.2 X Качество диапазона 100.0 % CRC теста 39B6F44A CRC копии 39B6F44A Копирование... OK
Ошибок не произошло
Конец отчёта
==== Контрольная сумма отчёта 518C4B43A59A6A8BBF9B61E7D4C2549D466D9A8B2CFDE41469E9198C70A69E69 ====



Показать сообщения:    

Текущее время: 10-Дек 02:09

Часовой пояс: UTC + 3


Вы не можете начинать темы
Вы не можете отвечать на сообщения
Вы не можете редактировать свои сообщения
Вы не можете удалять свои сообщения
Вы не можете голосовать в опросах
Вы не можете прикреплять файлы к сообщениям
Вы не можете скачивать файлы