(Crossover, Vocal) Paul Potts - One Chance (Japanese edit.) - 2007, APE (image+.cue) lossless


 

[Цитировать]

Paul Potts / One Chance
Жанр: Crossover, Vocal
Страна-производитель диска: Japan
Год издания диска: 2007
Издатель (лейбл): BMG Japan
Номер по каталогу: BVCP-21568
Страна: UK
Аудиокодек: APE
Тип рипа: image+.cue
Битрейт аудио: lossless
Продолжительность: 00:58:03
Источник: скачано с avaxhome
Наличие сканов в содержимом раздачи: да
Треклист:
01 Nessun Dorma 2:55
02 Time To Say Goodbye (Con Te Partiro) 4:06
03 Amapola 3:46
04 Everybody Hurts (Ognuno Soffre) 4:53
05 Caruso 3:53
06 Nella Fantasia 4:28
07 You Raise Me Up (Por Ti Sere) 4:04
08 My Way (A Mi Manera) 4:29
09 Cavatina 3:49
10 Music Of The Night 5:21
11 O Holy Night 4:24
12 Silent Night 3:21
13 Ave Maria 4:50
14 Panis Angelicus 3:45

Лог создания рипа

Exact Audio Copy V1.0 beta 3 from 29. August 2011
EAC extraction logfile from 16. April 2013, 8:20
Paul Potts / One Chance
Used drive : PIONEER BD-RW BDR-206 Adapter: 0 ID: 2
Read mode : SecureUtilize accurate stream : YesDefeat audio cache : YesMake use of C2 pointers : No
Read offset correction : 667Overread into Lead-In and Lead-Out : NoFill up missing offset samples with silence : YesDelete leading and trailing silent blocks : NoNull samples used in CRC calculations : YesUsed interface : Native Win32 interface for Win NT & 2000
Used output format : User Defined EncoderSelected bitrate : 1024 kBit/sQuality : HighAdd ID3 tag : YesCommand line compressor : C:\Program Files\FLAC\flac.exeAdditional command line options : -5 -T "Artist=%artist%" -T "Title=%title%" -T "Album=%albumtitle%" -T "Date=%year%" -T "Tracknumber=%tracknr%" -T "Genre=%genre%" %source% -o %dest%
TOC of the extracted CD
Track | Start | Length | Start sector | End sector --------------------------------------------------------- 1 | 0:00.00 | 2:55.28 | 0 | 13152 2 | 2:55.28 | 4:05.73 | 13153 | 31600 3 | 7:01.26 | 3:46.14 | 31601 | 48564 4 | 10:47.40 | 4:52.69 | 48565 | 70533 5 | 15:40.34 | 3:52.44 | 70534 | 87977 6 | 19:33.03 | 4:28.04 | 87978 | 108081 7 | 24:01.07 | 4:03.56 | 108082 | 126362 8 | 28:04.63 | 4:29.02 | 126363 | 146539 9 | 32:33.65 | 3:49.22 | 146540 | 163736 10 | 36:23.12 | 5:21.22 | 163737 | 187833 11 | 41:44.34 | 4:23.57 | 187834 | 207615 12 | 46:08.16 | 3:20.49 | 207616 | 222664 13 | 49:28.65 | 4:50.02 | 222665 | 244416 14 | 54:18.67 | 3:44.53 | 244417 | 261269 15 | 60:35.45 | 4:53.33 | 272670 | 294677
Range status and errors
Selected range
Filename F:\=== VINYL RIPS ===\=== EAC===\X FRESH RIP\Paul Potts - One Chance.wav
Peak level 98.8 % Extraction speed 7.2 X Range quality 100.0 % Copy CRC 6A4E5D24 Copy OK
No errors occurred
AccurateRip summary
Track 1 accurately ripped (confidence 4) [3A9BA7E6] (AR v1)Track 2 accurately ripped (confidence 4) [684FCF27] (AR v1)Track 3 accurately ripped (confidence 4) [18E52389] (AR v1)Track 4 accurately ripped (confidence 4) [0C5036E2] (AR v1)Track 5 accurately ripped (confidence 4) [1EACE713] (AR v1)Track 6 accurately ripped (confidence 4) [8D682E36] (AR v1)Track 7 accurately ripped (confidence 4) [1BB8907C] (AR v1)Track 8 accurately ripped (confidence 4) [E9F57329] (AR v1)Track 9 accurately ripped (confidence 4) [E76F7C65] (AR v1)Track 10 accurately ripped (confidence 4) [D4DB544B] (AR v1)Track 11 accurately ripped (confidence 4) [AD754E30] (AR v1)Track 12 accurately ripped (confidence 4) [7B0DEFEA] (AR v1)Track 13 accurately ripped (confidence 4) [AAC12DDB] (AR v1)Track 14 accurately ripped (confidence 4) [ED54251B] (AR v1)
All tracks accurately ripped
End of status report
---- CUETools DB Plugin V2.1.3
[CTDB TOCID: eMU0lTpqU08V2Fn8vd6R_vDreyI-] found, Submit result: eMU0lTpqU08V2Fn8vd6R_vDreyI- has been confirmed[85ce614a] (1/1) Accurately ripped
==== Log checksum 2F00441CED08DDB5CA7AD86FFE0CB0B5AF0D483D4A6BF0C659C98F3CE3791461 ====

Лог проверки качества

AUDIOCHECKER v2.0 beta (build 457) - by Dester - opdester@freemail.hu~~~~~~~~~~~~~~~~~~~~~~~~~~~~~~~~~~-=== DO NOT EDIT THIS FILE! ===-
Path: ...\Paul Potts - One Chance {Japan 2007}
1 -=- Paul Potts - One Chance.wav -=- CDDA (100%)
73044228



Показать сообщения:    

Текущее время: 04-Дек 13:15

Часовой пояс: UTC + 3


Вы не можете начинать темы
Вы не можете отвечать на сообщения
Вы не можете редактировать свои сообщения
Вы не можете удалять свои сообщения
Вы не можете голосовать в опросах
Вы не можете прикреплять файлы к сообщениям
Вы не можете скачивать файлы