(Modern Classical, Classical Crossover) Caleb Burhans, Alarm Will Sound, Tarab Cello Ensemble, Trinity Wall Street Choir - Evensong - 2013, FLAC (tracks+.cue) lossless


 

[Цитировать]

Caleb Burhans, Alarm Will Sound, Tarab Cello Ensemble, Trinity Wall Street Choir / Evensong
Жанр: Modern Classical, Classical Crossover
Страна-производитель диска: USA
Год издания диска: 2013
Издатель (лейбл): Cantaloupe Music
Номер по каталогу: CA21094
Страна: USA
Аудиокодек: FLAC
Тип рипа: tracks+.cue
Битрейт аудио: lossless
Продолжительность: 59:53
Источник: CD
сайт-источник/ник/другое: kivius
Наличие сканов в содержимом раздачи: нет
Треклист:
1. Magnificat (5:51)
Trinity Wall Street Choir
Caleb Burhans - organ, conductor
2. Amidst Neptune (11:36)
Alarm Will Sound
Caleb Burhans - conductor

3. Iceman Stole the Sun (8:55)
Alarm Will Sound
Caleb Burhans - conductor

4. Super Flumina Babylonis (9:24)
Trinity Wall Street Choir
Caleb Burhans - conductor

5. oh ye of little faith... (do you know where your children are?) (11:08)
Alarm Will Sound
Caleb Burhans - conductor

6. The Things Left Unsaid (8:36)
Tarab Cello Ensemble
7. Nunc Dimittis (Bible: New Testament) (4:41)
Trinity Wall Street Choir
Caleb Burhans - conductor

Лог создания рипа

X Lossless Decoder version 20130720 (144.0)
XLD extraction logfile from 2013-09-25 21:52:26 -0400
Caleb Burhans: Trinity Wall Street Choir, Tarab Cello Ensemble, Alarm Will Sound / Burhans: Evensong
Used drive : TSSTcorp CDDVDW SE-208DB (revision TS01)Media type : Pressed CD
Ripper mode : XLD Secure RipperDisable audio cache : OK for the drive with a cache less than 1375KiBMake use of C2 pointers : NORead offset correction : 6Max retry count : 20Gap status : Analyzed, Appended (except HTOA)
TOC of the extracted CD Track | Start | Length | Start sector | End sector --------------------------------------------------------- 1 | 00:00:00 | 05:51:06 | 0 | 26330 2 | 05:51:06 | 11:36:23 | 26331 | 78553 3 | 17:27:29 | 08:51:24 | 78554 | 118402 4 | 26:18:53 | 09:21:56 | 118403 | 160533 5 | 35:40:34 | 11:04:45 | 160534 | 210378 6 | 46:45:04 | 08:30:19 | 210379 | 248647 7 | 55:15:23 | 04:38:47 | 248648 | 269544
AccurateRip Summary Disc not found in AccurateRip DB.
All Tracks Album gain : -4.89 dB Peak : 0.975769 Statistics Read error : 0 Jitter error (maybe fixed) : 0 Retry sector count : 0 Damaged sector count : 0
Track 01 Filename : /Users/josh/Downloads/out/Caleb Burhans: Trinity Wall Street Choir, Tarab Cello Ensemble, Alarm Will Sound - Burhans: Evensong (2013) [FLAC]/01 - Burhans: Magnificat.flac Pre-gap length : 00:02:00
Track gain : -5.69 dB Peak : 0.975250 CRC32 hash (test run) : DF60280B CRC32 hash : DF60280B CRC32 hash (skip zero) : D86B0F65 AccurateRip v1 signature : E4F048D2 AccurateRip v2 signature : 4A8ED750 ->Track not present in AccurateRip database. Statistics Read error : 0 Jitter error (maybe fixed) : 0 Retry sector count : 0 Damaged sector count : 0
Track 02 Filename : /Users/josh/Downloads/out/Caleb Burhans: Trinity Wall Street Choir, Tarab Cello Ensemble, Alarm Will Sound - Burhans: Evensong (2013) [FLAC]/02 - Burhans: Amidst Neptune.flac
Track gain : -3.32 dB Peak : 0.972839 CRC32 hash (test run) : 8DDCB8E6 CRC32 hash : 8DDCB8E6 CRC32 hash (skip zero) : EF902AB8 AccurateRip v1 signature : 2FE0B027 AccurateRip v2 signature : 7D3DC635 ->Track not present in AccurateRip database. Statistics Read error : 0 Jitter error (maybe fixed) : 0 Retry sector count : 0 Damaged sector count : 0
Track 03 Filename : /Users/josh/Downloads/out/Caleb Burhans: Trinity Wall Street Choir, Tarab Cello Ensemble, Alarm Will Sound - Burhans: Evensong (2013) [FLAC]/03 - Burhans: Iceman Stole The Sun.flac
Track gain : -4.04 dB Peak : 0.975769 CRC32 hash (test run) : 17223DC2 CRC32 hash : 17223DC2 CRC32 hash (skip zero) : D3B3465E AccurateRip v1 signature : EE9DE3A7 AccurateRip v2 signature : 8012EBFF ->Track not present in AccurateRip database. Statistics Read error : 0 Jitter error (maybe fixed) : 0 Retry sector count : 0 Damaged sector count : 0
Track 04 Filename : /Users/josh/Downloads/out/Caleb Burhans: Trinity Wall Street Choir, Tarab Cello Ensemble, Alarm Will Sound - Burhans: Evensong (2013) [FLAC]/04 - Burhans: Super Flumina Babylonis.flac
Track gain : -5.03 dB Peak : 0.972290 CRC32 hash (test run) : 02DDD303 CRC32 hash : 02DDD303 CRC32 hash (skip zero) : 6CE18913 AccurateRip v1 signature : A3952348 AccurateRip v2 signature : D9107F79 ->Track not present in AccurateRip database. Statistics Read error : 0 Jitter error (maybe fixed) : 0 Retry sector count : 0 Damaged sector count : 0
Track 05 Filename : /Users/josh/Downloads/out/Caleb Burhans: Trinity Wall Street Choir, Tarab Cello Ensemble, Alarm Will Sound - Burhans: Evensong (2013) [FLAC]/05 - Burhans: Oh Ye Of Little Faith … (Do You Know Where Your Children Are?).flac
Track gain : -4.57 dB Peak : 0.973450 CRC32 hash (test run) : 635665EC CRC32 hash : 635665EC CRC32 hash (skip zero) : ABC75EF8 AccurateRip v1 signature : E5B4CE55 AccurateRip v2 signature : 6C7E80A2 ->Track not present in AccurateRip database. Statistics Read error : 0 Jitter error (maybe fixed) : 0 Retry sector count : 0 Damaged sector count : 0
Track 06 Filename : /Users/josh/Downloads/out/Caleb Burhans: Trinity Wall Street Choir, Tarab Cello Ensemble, Alarm Will Sound - Burhans: Evensong (2013) [FLAC]/06 - Burhans: The Things Left Unsaid.flac
Track gain : -6.28 dB Peak : 0.975555 CRC32 hash (test run) : 7D71FE02 CRC32 hash : 7D71FE02 CRC32 hash (skip zero) : 3B820C5F AccurateRip v1 signature : BC87F43A AccurateRip v2 signature : 4987DB81 ->Track not present in AccurateRip database. Statistics Read error : 0 Jitter error (maybe fixed) : 0 Retry sector count : 0 Damaged sector count : 0
Track 07 Filename : /Users/josh/Downloads/out/Caleb Burhans: Trinity Wall Street Choir, Tarab Cello Ensemble, Alarm Will Sound - Burhans: Evensong (2013) [FLAC]/07 - Burhans: Nunc Dimittis.flac
Track gain : -5.06 dB Peak : 0.972565 CRC32 hash (test run) : 7863F8DF CRC32 hash : 7863F8DF CRC32 hash (skip zero) : 0C24D9BD AccurateRip v1 signature : 0085BE27 AccurateRip v2 signature : C1F478C8 ->Track not present in AccurateRip database. Statistics Read error : 0 Jitter error (maybe fixed) : 0 Retry sector count : 0 Damaged sector count : 0
No errors occurred
End of status report

Содержание индексной карты (.CUE)

TITLE "Burhans: Evensong"PERFORMER "Caleb Burhans: Trinity Wall Street Choir, Tarab Cello Ensemble, Alarm Will Sound"CATALOG 0713746309428REM GENRE "Classical"REM DATE "2013"REM DISCNUMBER 1REM TOTALDISCS 1REM DISCID 510E0907REM REPLAYGAIN_ALBUM_GAIN -4.89 dBREM REPLAYGAIN_ALBUM_PEAK 0.975769FILE "01 - Burhans: Magnificat.flac" WAVE TRACK 01 AUDIO TITLE "Burhans: Magnificat" ISRC US3Q51310038 FLAGS DCP REM REPLAYGAIN_TRACK_GAIN -5.69 dB REM REPLAYGAIN_TRACK_PEAK 0.975250 INDEX 01 00:00:00FILE "02 - Burhans: Amidst Neptune.flac" WAVE TRACK 02 AUDIO TITLE "Burhans: Amidst Neptune" ISRC US3Q51310039 FLAGS DCP REM REPLAYGAIN_TRACK_GAIN -3.32 dB REM REPLAYGAIN_TRACK_PEAK 0.972839 INDEX 01 00:00:00FILE "03 - Burhans: Iceman Stole The Sun.flac" WAVE TRACK 03 AUDIO TITLE "Burhans: Iceman Stole The Sun" ISRC US3Q51310040 FLAGS DCP REM REPLAYGAIN_TRACK_GAIN -4.04 dB REM REPLAYGAIN_TRACK_PEAK 0.975769 INDEX 01 00:00:00FILE "04 - Burhans: Super Flumina Babylonis.flac" WAVE TRACK 04 AUDIO TITLE "Burhans: Super Flumina Babylonis" ISRC US3Q51310041 FLAGS DCP REM REPLAYGAIN_TRACK_GAIN -5.03 dB REM REPLAYGAIN_TRACK_PEAK 0.972290 INDEX 01 00:00:00FILE "05 - Burhans: Oh Ye Of Little Faith … (Do You Know Where Your Children Are?).flac" WAVE TRACK 05 AUDIO TITLE "Burhans: Oh Ye Of Little Faith … (Do You Know Where Your Children Are?)" ISRC US3Q51310042 FLAGS DCP REM REPLAYGAIN_TRACK_GAIN -4.57 dB REM REPLAYGAIN_TRACK_PEAK 0.973450 INDEX 01 00:00:00FILE "06 - Burhans: The Things Left Unsaid.flac" WAVE TRACK 06 AUDIO TITLE "Burhans: The Things Left Unsaid" ISRC US3Q51310043 FLAGS DCP REM REPLAYGAIN_TRACK_GAIN -6.28 dB REM REPLAYGAIN_TRACK_PEAK 0.975555 INDEX 01 00:00:00FILE "07 - Burhans: Nunc Dimittis.flac" WAVE TRACK 07 AUDIO TITLE "Burhans: Nunc Dimittis" ISRC US3Q51310044 FLAGS DCP REM REPLAYGAIN_TRACK_GAIN -5.06 dB REM REPLAYGAIN_TRACK_PEAK 0.972565 INDEX 01 00:00:00

Об исполнителе (группе)

Ask composer, singer, violinist and multi-instrumentalist Caleb Burhans about his relationship to the Christian tenets of faith, and he'll give you a thoughtful but conflicted answer. "Despite the fact that I've sung in church choirs for almost twenty years, I'm agnostic," he says. "So a lot of my music deals with my struggles with religion."
Evensong is Burhans' defining statement of his complex connection to the church — an "emo-classical" epic where sacred meets secular in a pure, dynamic expression of musical influences that range from classical to ambient to post-rock. While the album presents motifs from the Christian church service (book-ended with the opening "Magnificat" and the closing "Nunc Dimittis," recorded with the Trinity Wall Street Choir), it refracts them through the modern lens of new music and the avant garde.
This is Burhans' debut as a lead composer and recording artist, though he has long been recognized as a vital presence on the NYC new music scene. The New York Times has lauded him as "animated and versatile," a "sweet-voiced countertenor," and a "new music virtuoso." He is also a regular member of several groundbreaking groups and ensembles that have helped reshape modern classical music — among them ACME, Alarm Will Sound, Beyondo, Bleknlok, Escort, itsnotyouitsme, Newspeak, Ensemble Signal and the Wordless Music Orchestra.
Alarm Will Sound, in fact, takes up the secular portion of Evensong, performing three pieces that test the very limits of a large ensemble's expressive capabilities. "oh ye of little faith" is the arguable centerpiece, described by none other than Steve Reich as "a lovely homage to Arvo Part's In Memorium Banjamin Britten." Further on, the Tarab Cello Ensemble infuses "The Things Left Unsaid" with contemplative longing. With whimsical and incisive liner notes by longtime friend, collaborator and guitarist Grey Mcmurray, Evensong marks Burhans' arrival as one of the most promising young composers to emerge from NYC's trial-by-fire proving ground.



Показать сообщения:    

Текущее время: 10-Дек 11:55

Часовой пояс: UTC + 3


Вы не можете начинать темы
Вы не можете отвечать на сообщения
Вы не можете редактировать свои сообщения
Вы не можете удалять свои сообщения
Вы не можете голосовать в опросах
Вы не можете прикреплять файлы к сообщениям
Вы не можете скачивать файлы