(Classical, Accordion) Hugo Noth - Accordion Goes Classic - 2006, FLAC (image+.cue) lossless


 

[Цитировать]

♦ Hugo Noth - Accordion Goes Classic ♦
Жанр: Classical, Accordion
Страна-производитель диска: Russia
Год издания диска: 2006
Издатель (лейбл): Philips
Номер по каталогу: 844359
Аудиокодек: FLAC
Тип рипа: image+.cue
Битрейт аудио: lossless
Продолжительность: 00:34:44
Источник: собственный рип с диска
Наличие сканов в содержимом раздачи: да
Треклист:
01. Les Pettis Moulins [02:17]
02. Allegro [02:56]
03. Praludium Cis-Dur [02:52]
04. Le Carillon De Cythere [03:12]
05. Sonate D-moll [02:33]
06. Sonate A-dur [03:36]
07. La Victoire [03:07]
08. Bourree [02:46]
09. Allemande [04:27]
10. Tambourin [01:55]
11. Sonate C-dur [02:59]
12. Le Coucou [02:01]

Лог создания рипа

Exact Audio Copy V1.0 beta 3 from 29. August 2011
EAC extraction logfile from 27. October 2013, 14:45
Hugo Noth / Accordion Goes Classic
Used drive : Optiarc DVD RW AD-5200A Adapter: 0 ID: 0
Read mode : SecureUtilize accurate stream : YesDefeat audio cache : YesMake use of C2 pointers : No
Read offset correction : 48Overread into Lead-In and Lead-Out : NoFill up missing offset samples with silence : YesDelete leading and trailing silent blocks : NoNull samples used in CRC calculations : YesUsed interface : Native Win32 interface for Win NT & 2000
Used output format : User Defined EncoderSelected bitrate : 128 kBit/sQuality : HighAdd ID3 tag : NoCommand line compressor : C:\Program Files\Exact Audio Copy\Flac\flac.exeAdditional command line options : -V -8 -T "Genre=%genre%" -T "Artist=%artist%" -T "Title=%title%" -T "Album=%albumtitle%" -T "Date=%year%" -T "Tracknumber=%tracknr%" -T "Comment=%comment%" %source%
TOC of the extracted CD
Track | Start | Length | Start sector | End sector --------------------------------------------------------- 1 | 0:00.00 | 2:17.28 | 0 | 10302 2 | 2:17.28 | 2:56.32 | 10303 | 23534 3 | 5:13.60 | 2:52.00 | 23535 | 36434 4 | 8:05.60 | 3:13.00 | 36435 | 50909 5 | 11:18.60 | 2:33.25 | 50910 | 62409 6 | 13:52.10 | 3:36.50 | 62410 | 78659 7 | 17:28.60 | 3:07.00 | 78660 | 92684 8 | 20:35.60 | 2:46.00 | 92685 | 105134 9 | 23:21.60 | 4:27.00 | 105135 | 125159 10 | 27:48.60 | 1:55.17 | 125160 | 133801 11 | 29:44.02 | 2:59.00 | 133802 | 147226 12 | 32:43.02 | 2:01.27 | 147227 | 156328
Range status and errors
Selected range
Filename F:\2006.Hugo Noth - Accordion Goes Classic\Hugo Noth - Accordion Goes Classic.wav
Peak level 98.0 % Extraction speed 3.6 X Range quality 100.0 % Test CRC D4CB5271 Copy CRC D4CB5271 Copy OK
No errors occurred
AccurateRip summary
Track 1 not present in databaseTrack 2 not present in databaseTrack 3 not present in databaseTrack 4 not present in databaseTrack 5 not present in databaseTrack 6 not present in databaseTrack 7 not present in databaseTrack 8 not present in databaseTrack 9 not present in databaseTrack 10 not present in databaseTrack 11 not present in databaseTrack 12 not present in database
None of the tracks are present in the AccurateRip database
End of status report
==== Log checksum B9B69E8B28AE3CDDC9547667A91F712C3FD4A9B50A8BB19B4968D9BFC98F1C34 ====

Содержание индексной карты (.CUE)

REM DISCID 9C08240CREM COMMENT "ExactAudioCopy v1.0b3"PERFORMER "Hugo Noth"TITLE "Accordion Goes Classic"FILE "Hugo Noth - Accordion Goes Classic.flac" WAVE TRACK 01 AUDIO TITLE "Les Pettis Moulins" PERFORMER "Hugo Noth" FLAGS DCP INDEX 01 00:00:00 TRACK 02 AUDIO TITLE "Allegro" PERFORMER "Hugo Noth" FLAGS DCP INDEX 01 02:17:28 TRACK 03 AUDIO TITLE "Praludium Cis-Dur" PERFORMER "Hugo Noth" FLAGS DCP INDEX 01 05:13:60 TRACK 04 AUDIO TITLE "Le Carillon De Cythere" PERFORMER "Hugo Noth" FLAGS DCP INDEX 01 08:05:60 TRACK 05 AUDIO TITLE "Sonate D-moll" PERFORMER "Hugo Noth" FLAGS DCP INDEX 01 11:18:60 TRACK 06 AUDIO TITLE "Sonate A-dur" PERFORMER "Hugo Noth" FLAGS DCP INDEX 01 13:52:10 TRACK 07 AUDIO TITLE "La Victoire" PERFORMER "Hugo Noth" FLAGS DCP INDEX 01 17:28:60 TRACK 08 AUDIO TITLE "Bourree" PERFORMER "Hugo Noth" FLAGS DCP INDEX 01 20:35:60 TRACK 09 AUDIO TITLE "Allemande" PERFORMER "Hugo Noth" FLAGS DCP INDEX 01 23:21:60 TRACK 10 AUDIO TITLE "Tambourin" PERFORMER "Hugo Noth" FLAGS DCP INDEX 01 27:48:60 TRACK 11 AUDIO TITLE "Sonate C-dur" PERFORMER "Hugo Noth" FLAGS DCP INDEX 01 29:44:02 TRACK 12 AUDIO TITLE "Le Coucou" PERFORMER "Hugo Noth" FLAGS DCP INDEX 01 32:43:02

Состав

Personnel:
Hugo Noth - accordion
Dieter Reith - harpsichord
Werner Schulze - bass
Hermann Mutschler - drums



Показать сообщения:    

Текущее время: 10-Дек 23:26

Часовой пояс: UTC + 3


Вы не можете начинать темы
Вы не можете отвечать на сообщения
Вы не можете редактировать свои сообщения
Вы не можете удалять свои сообщения
Вы не можете голосовать в опросах
Вы не можете прикреплять файлы к сообщениям
Вы не можете скачивать файлы