(Classical, Rock) Vitamin String Quartet - Tribute to David Bowie - 2002, FLAC (tracks+.cue), lossless


 

[Цитировать]

Vitamin String Quartet - Tribute to David Bowie
Жанр: Classical, Rock
Страна-производитель диска: США
Год издания диска: 2002
Издатель (лейбл): Vitamin Records
Номер по каталогу: CD-8668
Аудиокодек: FLAC
Тип рипа: tracks+.cue
Битрейт аудио: lossless
Продолжительность: 37:23
Источник (релизер): Amanasz
Наличие сканов в содержимом раздачи: да
Треклист:
01. Ashes to Ashes (4:31)
02. Changes (3:23)
03. Space Oddity (5:14)
04. The Man Who Sold the World (3:48)
05. Ziggy Stardust (3:03)
06. Golden Years (3:37)
07. Let's Dance (4:12)
08. Heroes (3:31)
09. Fame (3:35)
10. Falling Through Space (original composition) (2:29)
Состав:
Petr Uhlir, Jan Alan - violin
Jiri Masarik - viola
Pavel Malina - cello
Roman Finger - contrabass
Recorded at Studio Hacienda, Zirovnice, Czech Republic.

Лог создания рипа

Exact Audio Copy V1.0 beta 2 from 29. April 2011
EAC extraction logfile from 27. March 2012, 17:23
The String Quartet / The String Quartet Tribute To David Bowie
Used drive : ASUS DRW-24B1ST Adapter: 2 ID: 1
Read mode : SecureUtilize accurate stream : YesDefeat audio cache : YesMake use of C2 pointers : No
Read offset correction : 6Overread into Lead-In and Lead-Out : NoFill up missing offset samples with silence : YesDelete leading and trailing silent blocks : NoNull samples used in CRC calculations : YesUsed interface : Native Win32 interface for Win NT & 2000Gap handling : Appended to previous track
Used output format : User Defined EncoderSelected bitrate : 1024 kBit/sQuality : HighAdd ID3 tag : NoCommand line compressor : C:\Program Files\Exact Audio Copy\Flac\flac.exeAdditional command line options : -8 -V -T "ARTIST=%artist%" -T "TITLE=%title%" -T "ALBUM=%albumtitle%" -T "DATE=%year%" -T "TRACKNUMBER=%tracknr%" -T "TOTALTRACKS=%numtracks%" -T "GENRE=%genre%" -T "ALBUMARTIST=%albumartist%" -T "ALBUM ARTIST=%albumartist%
TOC of the extracted CD
Track | Start | Length | Start sector | End sector --------------------------------------------------------- 1 | 0:00.07 | 4:30.71 | 7 | 20327 2 | 4:31.03 | 3:23.13 | 20328 | 35565 3 | 7:54.16 | 5:13.66 | 35566 | 59106 4 | 13:08.07 | 3:47.42 | 59107 | 76173 5 | 16:55.49 | 3:02.59 | 76174 | 89882 6 | 19:58.33 | 3:37.01 | 89883 | 106158 7 | 23:35.34 | 4:11.56 | 106159 | 125039 8 | 27:47.15 | 3:30.63 | 125040 | 140852 9 | 31:18.03 | 3:34.45 | 140853 | 156947 10 | 34:52.48 | 2:28.63 | 156948 | 168110
Track 1
Filename F:\AMANASZ\The String Quartet - Tribute To David Bowie (2002) [FLAC]\01 - Ashes to Ashes.wav
Pre-gap length 0:00:02.07
Peak level 89.5 % Extraction speed 3.5 X Track quality 100.0 % Test CRC 02E4111D Copy CRC 02E4111D Track not present in AccurateRip database Copy OK
Track 2
Filename F:\AMANASZ\The String Quartet - Tribute To David Bowie (2002) [FLAC]\02 - Changes.wav
Pre-gap length 0:00:00.06
Peak level 99.4 % Extraction speed 2.9 X Track quality 99.9 % Test CRC 2F29CD53 Copy CRC 2F29CD53 Track not present in AccurateRip database Copy OK
Track 3
Filename F:\AMANASZ\The String Quartet - Tribute To David Bowie (2002) [FLAC]\03 - Space Oddity.wav
Pre-gap length 0:00:01.47
Peak level 86.7 % Extraction speed 4.3 X Track quality 100.0 % Test CRC F0EE08E0 Copy CRC F0EE08E0 Track not present in AccurateRip database Copy OK
Track 4
Filename F:\AMANASZ\The String Quartet - Tribute To David Bowie (2002) [FLAC]\04 - The Man Who Sold The World.wav
Pre-gap length 0:00:01.25
Peak level 96.4 % Extraction speed 4.4 X Track quality 100.0 % Test CRC 5748D2D7 Copy CRC 5748D2D7 Track not present in AccurateRip database Copy OK
Track 5
Filename F:\AMANASZ\The String Quartet - Tribute To David Bowie (2002) [FLAC]\05 - Ziggy Stardust.wav
Pre-gap length 0:00:01.54
Peak level 74.7 % Extraction speed 4.5 X Track quality 100.0 % Test CRC 69ED4564 Copy CRC 69ED4564 Track not present in AccurateRip database Copy OK
Track 6
Filename F:\AMANASZ\The String Quartet - Tribute To David Bowie (2002) [FLAC]\06 - Golden Years.wav
Pre-gap length 0:00:01.02
Peak level 88.5 % Extraction speed 4.9 X Track quality 100.0 % Test CRC 6B109621 Copy CRC 6B109621 Track not present in AccurateRip database Copy OK
Track 7
Filename F:\AMANASZ\The String Quartet - Tribute To David Bowie (2002) [FLAC]\07 - Let's Dance.wav
Pre-gap length 0:00:00.65
Peak level 87.0 % Extraction speed 5.3 X Track quality 100.0 % Test CRC E53E0726 Copy CRC E53E0726 Track not present in AccurateRip database Copy OK
Track 8
Filename F:\AMANASZ\The String Quartet - Tribute To David Bowie (2002) [FLAC]\08 - Heroes.wav
Peak level 91.3 % Extraction speed 4.2 X Track quality 99.9 % Test CRC CA9E5594 Copy CRC CA9E5594 Track not present in AccurateRip database Copy OK
Track 9
Filename F:\AMANASZ\The String Quartet - Tribute To David Bowie (2002) [FLAC]\09 - Fame.wav
Pre-gap length 0:00:00.30
Peak level 89.6 % Extraction speed 5.5 X Track quality 100.0 % Test CRC 8CD6877A Copy CRC 8CD6877A Track not present in AccurateRip database Copy OK
Track 10
Filename F:\AMANASZ\The String Quartet - Tribute To David Bowie (2002) [FLAC]\10 - Falling Through Space (original composition).wav
Peak level 52.6 % Extraction speed 5.4 X Track quality 100.0 % Test CRC 526A050C Copy CRC 526A050C Track not present in AccurateRip database Copy OK
None of the tracks are present in the AccurateRip database
No errors occurred
End of status report
==== Log checksum C5D71767859D8BE1E3DE54B49F549683A5B0411CC7109AE3329E9E0F072BC304 ====

Содержание индексной карты (.CUE)

REM GENRE InstrumentalREM DATE 2002REM DISCID 7E08C10AREM COMMENT "ExactAudioCopy v1.0b2"PERFORMER "Vitamin String Quartet"TITLE "Tribute to David Bowie"FILE "01 - Ashes to Ashes.wav" WAVE TRACK 01 AUDIO TITLE "Ashes to Ashes" PERFORMER "Vitamin String Quartet" PREGAP 00:00:07 INDEX 01 00:00:00 TRACK 02 AUDIO TITLE "Changes" PERFORMER "Vitamin String Quartet" INDEX 00 04:30:65FILE "02 - Changes.wav" WAVE INDEX 01 00:00:00 TRACK 03 AUDIO TITLE "Space Oddity" PERFORMER "Vitamin String Quartet" INDEX 00 03:21:41FILE "03 - Space Oddity.wav" WAVE INDEX 01 00:00:00 TRACK 04 AUDIO TITLE "The Man Who Sold the World" PERFORMER "Vitamin String Quartet" INDEX 00 05:12:41FILE "04 - The Man Who Sold the World.wav" WAVE INDEX 01 00:00:00 TRACK 05 AUDIO TITLE "Ziggy Stardust" PERFORMER "Vitamin String Quartet" INDEX 00 03:45:63FILE "05 - Ziggy Stardust.wav" WAVE INDEX 01 00:00:00 TRACK 06 AUDIO TITLE "Golden Years" PERFORMER "Vitamin String Quartet" INDEX 00 03:01:57FILE "06 - Golden Years.wav" WAVE INDEX 01 00:00:00 TRACK 07 AUDIO TITLE "Let's Dance" PERFORMER "Vitamin String Quartet" INDEX 00 03:36:11FILE "07 - Let's Dance.wav" WAVE INDEX 01 00:00:00FILE "08 - Heroes.wav" WAVE TRACK 08 AUDIO TITLE "Heroes" PERFORMER "Vitamin String Quartet" INDEX 01 00:00:00 TRACK 09 AUDIO TITLE "Fame" PERFORMER "Vitamin String Quartet" INDEX 00 03:30:33FILE "09 - Fame.wav" WAVE INDEX 01 00:00:00FILE "10 - Falling Through Space (original composition).wav" WAVE TRACK 10 AUDIO TITLE "Falling Through Space (original composition)" PERFORMER "Vitamin String Quartet" INDEX 01 00:00:00

Отчет CUETools

[CUETools log; Date: 27.10.2013 22:58:37; Version: 2.1.4]Pregap length 00:00:07.[CTDB TOCID: AObcq78XmxiPQYvjq06WGYP4IO4-] disk not present in database.[AccurateRip ID: 000eed00-00760208-7e08c10a] found.Track [ CRC | V2 ] Status 01 [5e757509|b921d5f0] (0+1/1) Accurately ripped 02 [ace83f20|912482c7] (0+1/1) Accurately ripped 03 [a0df6ea0|dbe9cd0d] (0+1/1) Accurately ripped 04 [0de57ed6|a1ea2064] (0+1/1) Accurately ripped 05 [6329496b|5e01f157] (0+1/1) Accurately ripped 06 [b6fb2f50|d867cce8] (0+1/1) Accurately ripped 07 [5d9c8ae0|4133619c] (0+1/1) Accurately ripped 08 [9870e25a|c547687a] (0+1/1) Accurately ripped 09 [340f0cc1|40b2a046] (0+1/1) Accurately ripped 10 [0bc91e3d|c550107a] (0+1/1) Accurately ripped
Track Peak [ CRC32 ] [W/O NULL] [ LOG ] -- 99,4 [D5B6F041] [5802197F] 01 89,5 [02E4111D] [258022C8] CRC32 02 99,4 [2F29CD53] [7C1D2107] CRC32 03 86,7 [F0EE08E0] [B68453E4] CRC32 04 96,4 [5748D2D7] [2C9E256B] CRC32 05 74,7 [69ED4564] [65D61A58] CRC32 06 88,5 [6B109621] [8740793E] CRC32 07 87,0 [E53E0726] [AE015335] CRC32 08 91,3 [CA9E5594] [511128B7] CRC32 09 89,6 [8CD6877A] [1C0010BA] CRC32 10 52,6 [526A050C] [1877AB8D] CRC32

Review by Jonathan Widran

This is part of a bizarre series also featuring string quartet interpretations of the music of Led Zeppelin and Neil Young. It's too bad there are no liner notes accompanying this wild idea to put the music of rockers to the chamber music test, because it would be interesting to see what inspired Czech producer Milos Dolezal to put something so fascinating together. Nonetheless, listeners are assured that these five musicians are the most sought after of that country's string quartet players. They play percussively quite a bit, but the fun of Bowie's music is in its rhythmic and melodic oddities, and a lead violin sometimes smooths things out too much for the songs' own good on pieces like "Changes" and "Space Oddity." Taken one track at a time, these are unique curiosities, well-played attempts to mix rock with classical flavors. Bowie's melodic genius shines through. As a whole though, the session gets repetitive and the lack of rhythmic variation becomes taxing.



Показать сообщения:    

Текущее время: 03-Дек 12:40

Часовой пояс: UTC + 3


Вы не можете начинать темы
Вы не можете отвечать на сообщения
Вы не можете редактировать свои сообщения
Вы не можете удалять свои сообщения
Вы не можете голосовать в опросах
Вы не можете прикреплять файлы к сообщениям
Вы не можете скачивать файлы