(Harp, Contemporary, Crossover) Catrin Finch - Crossing the Stone (Jenkins, Bach, Debussy, Reich, Handel, Gounod, Piazzolla, Corea, Grusin, Metheney) - 2001, APE (image+.cue) lossless


 

[Цитировать]

Catrin Finch / Crossing the Stone
Жанр: Harp, Contemporary, Crossover
Страна-производитель диска: Austria
Год издания диска: 2001
Издатель (лейбл): Sony Classical
Номер по каталогу: SK 87320
Аудиокодек: APE
Тип рипа: image+.cue
Битрейт аудио: lossless
Продолжительность: 01:04:44
Источник: скачано с avaxhome
Наличие сканов в содержимом раздачи: да
Треклист:
01 Mountain Dance (Dave Grusin, arr. Karl Jenkins)
02 Harpers Bizarre (Karl Jenkins)
03 James (Pat Metheney, Lyle Mays, arr. Karl Jenkins)
04 Crossing The Stone/Tros Y Garreg (Traditional, arr. Karl Jenkins)
05 Prelude From Partita No.3 (Johann Sebastian Bach)
06 Third Movement From Electric Counterpoint (Steve Reich)
07 Eternal Dream (Karl Jenkins)
08 The Arrival Of The Queen Of Sheba From Solomon (G.F. Handel, arr. K. Jenkins)
09 Cafe Vamp Latino (Karl Jenkins)
10 Spain (Chick Corea, arr. Karl Jenkins)
11 Buenos Aires Hora Cero (Astor Piazzolla, arr. Karl Jenkins)
12 Clair De Lune (Claude Debussy)
13 Prelude In C / Ave Maria (Johann Sebastian Bach, Charles Gounod, arr. Karl Jenkins)
14 Thingamujig (Karl Jenkins)
15 Suo Gan (Traditional, arr. Karl Jenkins)
16 Palladio 1ST Movement (Karl Jenkins, remix by Jody Jenkins)
Исполнители:
Catrin Finch, acoustic and electric harp
City of Prague Philharmonic Orchestra - Karl Jenkins

Лог создания рипа

Exact Audio Copy V1.0 beta 3 from 29. August 2011
EAC extraction logfile from 10. April 2013, 16:10
Catrin Finch - Karl Jenkins; City of Prague Philharmonic Orchestra / Crossing the Stone
Used drive : PIONEER BD-RW BDR-206 Adapter: 0 ID: 2
Read mode : SecureUtilize accurate stream : YesDefeat audio cache : YesMake use of C2 pointers : No
Read offset correction : 667Overread into Lead-In and Lead-Out : NoFill up missing offset samples with silence : YesDelete leading and trailing silent blocks : NoNull samples used in CRC calculations : YesUsed interface : Native Win32 interface for Win NT & 2000
Used output format : User Defined EncoderSelected bitrate : 1024 kBit/sQuality : HighAdd ID3 tag : YesCommand line compressor : C:\Program Files\FLAC\flac.exeAdditional command line options : -5 -T "Artist=%artist%" -T "Title=%title%" -T "Album=%albumtitle%" -T "Date=%year%" -T "Tracknumber=%tracknr%" -T "Genre=%genre%" %source% -o %dest%
TOC of the extracted CD
Track | Start | Length | Start sector | End sector --------------------------------------------------------- 1 | 0:00.00 | 4:51.10 | 0 | 21834 2 | 4:51.10 | 3:15.63 | 21835 | 36522 3 | 8:06.73 | 2:21.40 | 36523 | 47137 4 | 10:28.38 | 4:17.15 | 47138 | 66427 5 | 14:45.53 | 4:01.28 | 66428 | 84530 6 | 18:47.06 | 4:27.60 | 84531 | 104615 7 | 23:14.66 | 4:49.51 | 104616 | 126341 8 | 28:04.42 | 3:31.73 | 126342 | 142239 9 | 31:36.40 | 4:53.72 | 142240 | 164286 10 | 36:30.37 | 3:27.13 | 164287 | 179824 11 | 39:57.50 | 4:58.03 | 179825 | 202177 12 | 44:55.53 | 6:07.39 | 202178 | 229741 13 | 51:03.17 | 4:27.58 | 229742 | 249824 14 | 55:31.00 | 2:27.61 | 249825 | 260910 15 | 57:58.61 | 3:32.00 | 260911 | 276810 16 | 61:30.61 | 3:13.29 | 276811 | 291314
Range status and errors
Selected range
Filename F:\=== VINYL RIPS ===\=== EAC===\X FRESH RIP\Catrin Finch - Jenkins; City of Prague Philharmonic Orchestra - Crossing the Stone.wav
Peak level 100.0 % Extraction speed 7.8 X Range quality 100.0 % Copy CRC EF76A71B Copy OK
No errors occurred
AccurateRip summary
Track 1 accurately ripped (confidence 3) [ED800F27] (AR v2)Track 2 accurately ripped (confidence 3) [E4FE30DF] (AR v2)Track 3 accurately ripped (confidence 3) [C26D8425] (AR v2)Track 4 accurately ripped (confidence 3) [7F6A9707] (AR v2)Track 5 accurately ripped (confidence 3) [66F75E90] (AR v2)Track 6 accurately ripped (confidence 3) [07C5A458] (AR v2)Track 7 accurately ripped (confidence 3) [99E74972] (AR v2)Track 8 accurately ripped (confidence 3) [BAFEA2DC] (AR v2)Track 9 accurately ripped (confidence 3) [2F4B56E5] (AR v2)Track 10 accurately ripped (confidence 3) [500A1A52] (AR v2)Track 11 accurately ripped (confidence 3) [38C828A9] (AR v2)Track 12 accurately ripped (confidence 3) [BC4EE8C3] (AR v2)Track 13 accurately ripped (confidence 3) [AFB48953] (AR v2)Track 14 accurately ripped (confidence 3) [CA6E95EC] (AR v2)Track 15 accurately ripped (confidence 3) [07E7E585] (AR v2)Track 16 accurately ripped (confidence 3) [B19CFB23] (AR v2)
All tracks accurately ripped
End of status report
---- CUETools DB Plugin V2.1.3
[CTDB TOCID: WtUQZ4tjX1.oy_3MPS8cEX1ipg4-] found, Submit result: WtUQZ4tjX1.oy_3MPS8cEX1ipg4- has been confirmed[6782c462] (1/2) Differs in 60 samples @57:11:69-57:11:70[d6981f49] (1/2) Accurately rippedYou can use CUETools to repair this rip.
==== Log checksum B8B59BE3F24B6101A98CF6158687F74066318EE01F8427845D26F6C4D2822799 ====

Лог проверки качества

AUDIOCHECKER v2.0 beta (build 457) - by Dester - opdester@freemail.hu~~~~~~~~~~~~~~~~~~~~~~~~~~~~~~~~~~-=== DO NOT EDIT THIS FILE! ===-
Path: ...\Catrin Finch - Crossing the Stone {2003}
1 -=- Crossing the Stone.wav -=- CDDA (100%)
163490148



Показать сообщения:    

Текущее время: 09-Дек 22:20

Часовой пояс: UTC + 3


Вы не можете начинать темы
Вы не можете отвечать на сообщения
Вы не можете редактировать свои сообщения
Вы не можете удалять свои сообщения
Вы не можете голосовать в опросах
Вы не можете прикреплять файлы к сообщениям
Вы не можете скачивать файлы