(Classical, Instrumental) The Royal Philharmonic Orchestra Plays The Music Of Pink Floyd - 1996, FLAC (tracks+.cue) lossless


 

[Цитировать]

The Royal Philharmonic Orchestra Plays The Music Of Pink Floyd -Жанр: Classical, Instrumental
Страна-производитель диска: United Kingdom
Год издания диска: 1996
Издатель (лейбл): Emporio EDEL UK Records Ltd.
Номер по каталогу: EMPRCD 677
Страна: United Kingdom
Аудиокодек: FLAC
Тип рипа: tracks+.cue
Битрейт аудио: lossless
Продолжительность: 51:11
Источник: собственный рип
сайт-источник/ник/другое: Zephyr
Наличие сканов в содержимом раздачи: нет-Треклист:-1. Shine on You Crazy Diamond
2. Money
3. Us and Them
4. Hey You
5. Another Brick in the Wall
6. Wish You Were Here
7. Time
8. Great Gig in the Sky
9. In the Flesh-

Лог создания рипа

Exact Audio Copy V1.0 beta 3 from 29. August 2011
EAC extraction logfile from 27. July 2013, 16:19
The Royal Philharmonic Orchestra / The RPO Plays The Music Of Pink Floyd
Used drive : LITE-ON DVDRW SOHW-1653S Adapter: 1 ID: 0
Read mode : SecureUtilize accurate stream : YesDefeat audio cache : YesMake use of C2 pointers : No
Read offset correction : 12Overread into Lead-In and Lead-Out : NoFill up missing offset samples with silence : YesDelete leading and trailing silent blocks : NoNull samples used in CRC calculations : YesUsed interface : Native Win32 interface for Win NT & 2000Gap handling : Appended to previous track
Used output format : User Defined EncoderSelected bitrate : 1024 kBit/sQuality : HighAdd ID3 tag : NoCommand line compressor : C:\Program Files\FLAC\flac.exeAdditional command line options : -8 -V -T "ARTIST=%artist%" -T "TITLE=%title%" -T "ALBUM=%albumtitle%" -T "DATE=%year%" -T "TRACKNUMBER=%tracknr%" -T "GENRE=%genre%" -T "PERFORMER=%albuminterpret%" -T "COMPOSER=%composer%" %haslyrics%--tag-from-file=LYRICS="%lyricsfile%"%haslyrics% -T "ALBUMARTIST=%albumartist%" -T "DISCNUMBER=%cdnumber%" -T "TOTALDISCS=%totalcds%" -T "TOTALTRACKS=%numtracks%" -T "COMMENT=%comment%" %source% -o %dest%
TOC of the extracted CD
Track | Start | Length | Start sector | End sector --------------------------------------------------------- 1 | 0:00.00 | 9:43.27 | 0 | 43751 2 | 9:43.27 | 5:05.20 | 43752 | 66646 3 | 14:48.47 | 6:16.03 | 66647 | 94849 4 | 21:04.50 | 4:31.55 | 94850 | 115229 5 | 25:36.30 | 6:54.65 | 115230 | 146344 6 | 32:31.20 | 4:25.70 | 146345 | 166289 7 | 36:57.15 | 5:50.42 | 166290 | 192581 8 | 42:47.57 | 4:15.08 | 192582 | 211714 9 | 47:02.65 | 4:08.27 | 211715 | 230341
Track 1
Filename P:\01 - Shine On Your Crazy Diamond.wav
Pre-gap length 0:00:02.00
Peak level 89.4 % Extraction speed 3.6 X Track quality 100.0 % Test CRC 253137DF Copy CRC 253137DF Accurately ripped (confidence 2) [97256503] (AR v1) Copy OK
Track 2
Filename P:\02 - Money.wav
Pre-gap length 0:00:02.66
Peak level 90.5 % Extraction speed 5.2 X Track quality 100.0 % Test CRC F4BB44FA Copy CRC F4BB44FA Accurately ripped (confidence 2) [37F9E43D] (AR v1) Copy OK
Track 3
Filename P:\03 - Us & Them.wav
Pre-gap length 0:00:03.62
Peak level 90.1 % Extraction speed 5.0 X Track quality 100.0 % Test CRC 1EF66189 Copy CRC 1EF66189 Accurately ripped (confidence 2) [7894D6AF] (AR v1) Copy OK
Track 4
Filename P:\04 - Hey You.wav
Pre-gap length 0:00:02.90
Peak level 90.4 % Extraction speed 5.1 X Track quality 100.0 % Test CRC BBEB66AF Copy CRC BBEB66AF Accurately ripped (confidence 2) [24608B6E] (AR v1) Copy OK
Track 5
Filename P:\05 - Another Brick In The Wall.wav
Pre-gap length 0:00:05.20
Peak level 90.5 % Extraction speed 5.2 X Track quality 100.0 % Test CRC 5EDF70DB Copy CRC 5EDF70DB Accurately ripped (confidence 2) [D0FC2FDF] (AR v1) Copy OK
Track 6
Filename P:\06 - Wish You Were Here.wav
Pre-gap length 0:00:03.77
Peak level 88.6 % Extraction speed 5.9 X Track quality 99.9 % Test CRC DBBCCC42 Copy CRC DBBCCC42 Accurately ripped (confidence 2) [9AA78FC7] (AR v1) Copy OK
Track 7
Filename P:\07 - Time.wav
Pre-gap length 0:00:02.93
Peak level 88.9 % Extraction speed 5.6 X Track quality 99.9 % Test CRC BFD77CC7 Copy CRC BFD77CC7 Cannot be verified as accurate (confidence 8) [A9970F71], AccurateRip returned [A4AB0608] (AR v2) Copy OK
Track 8
Filename P:\08 - The Great Gig In The Sky.wav
Peak level 87.1 % Extraction speed 6.3 X Track quality 100.0 % Test CRC 28930EE6 Copy CRC 28930EE6 Accurately ripped (confidence 2) [4144B823] (AR v1) Copy OK
Track 9
Filename P:\09 - In The Flesh.wav
Pre-gap length 0:00:03.04
Peak level 89.2 % Extraction speed 2.5 X Track quality 99.9 % Test CRC FF14CA4E Copy CRC FF14CA4E Accurately ripped (confidence 2) [40CA4339] (AR v1) Copy OK
8 track(s) accurately ripped 1 track(s) could not be verified as accurate
Some tracks could not be verified as accurate
No errors occurred
End of status report
---- CUETools DB Plugin V2.1.3
[CTDB TOCID: sj8iyPmhl3iQEHGmuwkYGOoFPZ0-] found, Submit result: sj8iyPmhl3iQEHGmuwkYGOoFPZ0- has been confirmed[7b0a6840] (6/7) Accurately ripped[4a5f63fd] (1/7) No match
==== Log checksum A083C723ABF9FA0D9A59E54618CDD47AA27D50B5F26E069C00C5000490E16591 ====

Содержание индексной карты (.CUE)

REM GENRE "Alternative Rock"REM DATE 1996REM DISCID 8B0BFF09REM COMMENT "ExactAudioCopy v1.0b3"PERFORMER "The Royal Philharmonic Orchestra"TITLE "The RPO Plays The Music Of Pink Floyd"FILE "01 - Shine On Your Crazy Diamond.wav" WAVE TRACK 01 AUDIO TITLE "Shine On Your Crazy Diamond" PERFORMER "The Royal Philharmonic Orchestra" INDEX 01 00:00:00 TRACK 02 AUDIO TITLE "Money" PERFORMER "The Royal Philharmonic Orchestra" INDEX 00 09:40:52FILE "02 - Money.wav" WAVE INDEX 01 00:00:00 TRACK 03 AUDIO TITLE "Us & Them" PERFORMER "The Royal Philharmonic Orchestra" INDEX 00 05:01:48FILE "03 - Us & Them.wav" WAVE INDEX 01 00:00:00 TRACK 04 AUDIO TITLE "Hey You" PERFORMER "The Royal Philharmonic Orchestra" INDEX 00 06:13:10FILE "04 - Hey You.wav" WAVE INDEX 01 00:00:00 TRACK 05 AUDIO TITLE "Another Brick In The Wall" PERFORMER "The Royal Philharmonic Orchestra" INDEX 00 04:26:40FILE "05 - Another Brick In The Wall.wav" WAVE INDEX 01 00:00:00 TRACK 06 AUDIO TITLE "Wish You Were Here" PERFORMER "The Royal Philharmonic Orchestra" INDEX 00 06:51:07FILE "06 - Wish You Were Here.wav" WAVE INDEX 01 00:00:00 TRACK 07 AUDIO TITLE "Time" PERFORMER "The Royal Philharmonic Orchestra" INDEX 00 04:23:00FILE "07 - Time.wav" WAVE INDEX 01 00:00:00FILE "08 - The Great Gig In The Sky.wav" WAVE TRACK 08 AUDIO TITLE "The Great Gig In The Sky" PERFORMER "The Royal Philharmonic Orchestra" INDEX 01 00:00:00 TRACK 09 AUDIO TITLE "In The Flesh" PERFORMER "The Royal Philharmonic Orchestra" INDEX 00 04:12:05FILE "09 - In The Flesh.wav" WAVE INDEX 01 00:00:00



Показать сообщения:    

Текущее время: 09-Дек 18:34

Часовой пояс: UTC + 3


Вы не можете начинать темы
Вы не можете отвечать на сообщения
Вы не можете редактировать свои сообщения
Вы не можете удалять свои сообщения
Вы не можете голосовать в опросах
Вы не можете прикреплять файлы к сообщениям
Вы не можете скачивать файлы