(Instrumental, Symphonic Rock) The London Starlight Orchestra & Singers - The Show Must Go On (The Queen Songbook) - 1992, FLAC (tracks+.cue) lossless


 

[Цитировать]

The London Starlight Orchestra & Singers / The Show Must Go On (The Queen Songbook)
Жанр: Instrumental, Symphonic Rock
Страна-производитель диска: Holland
Год издания диска: 1992
Издатель (лейбл): Star Inc. Music
Номер по каталогу: CD 86066
Страна: UK
Аудиокодек: FLAC
Тип рипа: tracks+.cue
Битрейт аудио: lossless
Продолжительность: 01:02:41
Источник: собственный рип
Наличие сканов в содержимом раздачи: да
Треклист:
01. Bohemian Rhapsody (6:11)
02. Who Wants To Live Forever (4:57)
03. Bicycle Race (2:50)
04. Another One Bites The Dust (3:18)
05. Don't Stop Me Now (3:19)
06. Killer Queen (3:08)
07. You're My Best Friend (2:53)
08. I Want It All (3:44)
09. The Show Must Go On (4:06)
10. Grazy Little Thing Called Love (2:43)
11. Play The Game (3:23)
12. Radio Ga Ga (5:59)
13. Friends Will Be Friends (3:36)
14. We Are The Champions (3:12)
15. Under Pressure (3:53)
16. Barcelona (5:29)

Лог создания рипа

Exact Audio Copy V1.0 beta 3 from 29. August 2011
EAC extraction logfile from 28. July 2013, 0:51
The London Starlight Orchestra & Singers / Queen - The Show Must Go On (The Queen Songbook)
Used drive : MATSHITABD-CMB UJ242AS Adapter: 0 ID: 1
Read mode : SecureUtilize accurate stream : YesDefeat audio cache : YesMake use of C2 pointers : No
Read offset correction : 103Overread into Lead-In and Lead-Out : NoFill up missing offset samples with silence : YesDelete leading and trailing silent blocks : NoNull samples used in CRC calculations : YesUsed interface : Native Win32 interface for Win NT & 2000Gap handling : Appended to previous track
Used output format : User Defined EncoderSelected bitrate : 896 kBit/sQuality : HighAdd ID3 tag : NoCommand line compressor : C:\Program Files (x86)\FLAC\flac.exeAdditional command line options : -V -8 -T "Genre=%genre%" -T "Artist=%artist%" -T "Title=%title%" -T "Album=%albumtitle%" -T "Date=%year%" -T "Tracknumber=%tracknr%" -T "Comment=%comment%" %source%
TOC of the extracted CD
Track | Start | Length | Start sector | End sector --------------------------------------------------------- 1 | 0:00.33 | 6:15.55 | 33 | 28212 2 | 6:16.13 | 4:58.30 | 28213 | 50592 3 | 11:14.43 | 2:54.42 | 50593 | 63684 4 | 14:09.10 | 3:21.68 | 63685 | 78827 5 | 17:31.03 | 3:21.20 | 78828 | 93922 6 | 20:52.23 | 3:07.47 | 93923 | 107994 7 | 23:59.70 | 2:58.08 | 107995 | 121352 8 | 26:58.03 | 3:47.70 | 121353 | 138447 9 | 30:45.73 | 4:19.02 | 138448 | 157874 10 | 35:05.00 | 2:44.33 | 157875 | 170207 11 | 37:49.33 | 3:24.00 | 170208 | 185507 12 | 41:13.33 | 6:01.00 | 185508 | 212582 13 | 47:14.33 | 3:35.35 | 212583 | 228742 14 | 50:49.68 | 3:13.05 | 228743 | 243222 15 | 54:02.73 | 3:57.70 | 243223 | 261067 16 | 58:00.68 | 5:30.07 | 261068 | 285824
Track 1
Filename C:\Queen\The London Starlight Orchestra & Singers\01. Bohemian Rhapsody.wav
Pre-gap length 0:00:02.33
Peak level 97.7 % Extraction speed 2.8 X Track quality 100.0 % Test CRC 9E3F00EC Copy CRC 9E3F00EC Accurately ripped (confidence 2) [B366F1CA] (AR v2) Copy OK
Track 2
Filename C:\Queen\The London Starlight Orchestra & Singers\02. Who Wants To Live Forever.wav
Pre-gap length 0:00:01.73
Peak level 97.5 % Extraction speed 3.1 X Track quality 100.0 % Test CRC EA383D7A Copy CRC EA383D7A Accurately ripped (confidence 2) [86612BD0] (AR v2) Copy OK
Track 3
Filename C:\Queen\The London Starlight Orchestra & Singers\03. Bicycle Race.wav
Pre-gap length 0:00:02.30
Peak level 97.7 % Extraction speed 3.1 X Track quality 100.0 % Test CRC AB144244 Copy CRC AB144244 Accurately ripped (confidence 2) [18E77543] (AR v2) Copy OK
Track 4
Filename C:\Queen\The London Starlight Orchestra & Singers\04. Another One Bites The Dust.wav
Pre-gap length 0:00:02.27
Peak level 97.7 % Extraction speed 3.3 X Track quality 100.0 % Test CRC 61192E42 Copy CRC 61192E42 Accurately ripped (confidence 2) [3F5DDC9C] (AR v2) Copy OK
Track 5
Filename C:\Queen\The London Starlight Orchestra & Singers\05. Don't Stop Me Now.wav
Pre-gap length 0:00:02.05
Peak level 97.7 % Extraction speed 3.5 X Track quality 100.0 % Test CRC FF0A72D1 Copy CRC FF0A72D1 Accurately ripped (confidence 2) [ECD251C5] (AR v2) Copy OK
Track 6
Filename C:\Queen\The London Starlight Orchestra & Singers\06. Killer Queen.wav
Pre-gap length 0:00:02.00
Peak level 97.7 % Extraction speed 3.6 X Track quality 100.0 % Test CRC 05740660 Copy CRC 05740660 Accurately ripped (confidence 2) [62A05996] (AR v2) Copy OK
Track 7
Filename C:\Queen\The London Starlight Orchestra & Singers\07. You're My Best Friend.wav
Pre-gap length 0:00:02.22
Peak level 97.7 % Extraction speed 3.7 X Track quality 100.0 % Test CRC D31D7861 Copy CRC D31D7861 Accurately ripped (confidence 2) [C91B03D2] (AR v2) Copy OK
Track 8
Filename C:\Queen\The London Starlight Orchestra & Singers\08. I Want It All.wav
Pre-gap length 0:00:02.23
Peak level 97.7 % Extraction speed 4.0 X Track quality 100.0 % Test CRC 382ECB31 Copy CRC 382ECB31 Accurately ripped (confidence 2) [C3E4F0E4] (AR v2) Copy OK
Track 9
Filename C:\Queen\The London Starlight Orchestra & Singers\09. The Show Must Go On.wav
Pre-gap length 0:00:01.68
Peak level 97.7 % Extraction speed 4.2 X Track quality 100.0 % Test CRC C08EF2CD Copy CRC C08EF2CD Accurately ripped (confidence 2) [450E6699] (AR v2) Copy OK
Track 10
Filename C:\Queen\The London Starlight Orchestra & Singers\10. Grazy Little Thing Called Love.wav
Pre-gap length 0:00:02.12
Peak level 97.7 % Extraction speed 4.1 X Track quality 100.0 % Test CRC 0DA941EF Copy CRC 0DA941EF Accurately ripped (confidence 2) [7A393DAA] (AR v2) Copy OK
Track 11
Filename C:\Queen\The London Starlight Orchestra & Singers\11. Play The Game.wav
Pre-gap length 0:00:02.05
Peak level 97.7 % Extraction speed 4.3 X Track quality 100.0 % Test CRC 9F06D920 Copy CRC 9F06D920 Accurately ripped (confidence 2) [28BF2AE4] (AR v2) Copy OK
Track 12
Filename C:\Queen\The London Starlight Orchestra & Singers\12. Radio Ga Ga.wav
Pre-gap length 0:00:01.68
Peak level 82.8 % Extraction speed 4.8 X Track quality 100.0 % Test CRC 7F51A1D7 Copy CRC 7F51A1D7 Accurately ripped (confidence 2) [3D3D6B2A] (AR v2) Copy OK
Track 13
Filename C:\Queen\The London Starlight Orchestra & Singers\13. Friends Will Be Friends.wav
Pre-gap length 0:00:01.65
Peak level 97.7 % Extraction speed 3.4 X Track quality 99.9 % Test CRC A5881CEC Copy CRC A5881CEC Accurately ripped (confidence 2) [9F6AAF09] (AR v2) Copy OK
Track 14
Filename C:\Queen\The London Starlight Orchestra & Singers\14. We Are The Champions.wav
Pre-gap length 0:00:01.70
Peak level 97.7 % Extraction speed 4.7 X Track quality 100.0 % Test CRC 02C65EC8 Copy CRC 02C65EC8 Accurately ripped (confidence 2) [73DC20E0] (AR v2) Copy OK
Track 15
Filename C:\Queen\The London Starlight Orchestra & Singers\15. Under Pressure.wav
Pre-gap length 0:00:01.70
Peak level 97.7 % Extraction speed 5.0 X Track quality 100.0 % Test CRC 61E937FB Copy CRC 61E937FB Accurately ripped (confidence 2) [BEC6D7B3] (AR v2) Copy OK
Track 16
Filename C:\Queen\The London Starlight Orchestra & Singers\16. Barcelona.wav
Pre-gap length 0:00:01.60
Peak level 88.8 % Extraction speed 5.4 X Track quality 100.0 % Test CRC 930FB382 Copy CRC 930FB382 Accurately ripped (confidence 2) [FA3CFA30] (AR v2) Copy OK
All tracks accurately ripped
No errors occurred
End of status report
==== Log checksum 27FFD5E97D8F785B48C21DA54C767C5FAA559583D4DED5B5052E002732B0C61C ====

Содержание индексной карты (.CUE)

REM GENRE "Symphonic Rock"REM DATE 1992REM DISCID D30EE310REM COMMENT "ExactAudioCopy v1.0b3"PERFORMER "The London Starlight Orchestra & Singers"TITLE "Queen - The Show Must Go On (The Queen Songbook)"FILE "01. Bohemian Rhapsody.wav" WAVE TRACK 01 AUDIO TITLE "Bohemian Rhapsody" PERFORMER "The London Starlight Orchestra & Singers" PREGAP 00:00:33 INDEX 01 00:00:00 TRACK 02 AUDIO TITLE "Who Wants To Live Forever" PERFORMER "The London Starlight Orchestra & Singers" INDEX 00 06:13:57FILE "02. Who Wants To Live Forever.wav" WAVE INDEX 01 00:00:00 TRACK 03 AUDIO TITLE "Bicycle Race" PERFORMER "The London Starlight Orchestra & Singers" INDEX 00 04:56:00FILE "03. Bicycle Race.wav" WAVE INDEX 01 00:00:00 TRACK 04 AUDIO TITLE "Another One Bites The Dust" PERFORMER "The London Starlight Orchestra & Singers" INDEX 00 02:52:15FILE "04. Another One Bites The Dust.wav" WAVE INDEX 01 00:00:00 TRACK 05 AUDIO TITLE "Don't Stop Me Now" PERFORMER "The London Starlight Orchestra & Singers" INDEX 00 03:19:63FILE "05. Don't Stop Me Now.wav" WAVE INDEX 01 00:00:00 TRACK 06 AUDIO TITLE "Killer Queen" PERFORMER "The London Starlight Orchestra & Singers" INDEX 00 03:19:20FILE "06. Killer Queen.wav" WAVE INDEX 01 00:00:00 TRACK 07 AUDIO TITLE "You're My Best Friend" PERFORMER "The London Starlight Orchestra & Singers" INDEX 00 03:05:25FILE "07. You're My Best Friend.wav" WAVE INDEX 01 00:00:00 TRACK 08 AUDIO TITLE "I Want It All" PERFORMER "The London Starlight Orchestra & Singers" INDEX 00 02:55:60FILE "08. I Want It All.wav" WAVE INDEX 01 00:00:00 TRACK 09 AUDIO TITLE "The Show Must Go On" PERFORMER "The London Starlight Orchestra & Singers" INDEX 00 03:46:02FILE "09. The Show Must Go On.wav" WAVE INDEX 01 00:00:00 TRACK 10 AUDIO TITLE "Grazy Little Thing Called Love" PERFORMER "The London Starlight Orchestra & Singers" INDEX 00 04:16:65FILE "10. Grazy Little Thing Called Love.wav" WAVE INDEX 01 00:00:00 TRACK 11 AUDIO TITLE "Play The Game" PERFORMER "The London Starlight Orchestra & Singers" INDEX 00 02:42:28FILE "11. Play The Game.wav" WAVE INDEX 01 00:00:00 TRACK 12 AUDIO TITLE "Radio Ga Ga" PERFORMER "The London Starlight Orchestra & Singers" INDEX 00 03:22:07FILE "12. Radio Ga Ga.wav" WAVE INDEX 01 00:00:00 TRACK 13 AUDIO TITLE "Friends Will Be Friends" PERFORMER "The London Starlight Orchestra & Singers" INDEX 00 05:59:10FILE "13. Friends Will Be Friends.wav" WAVE INDEX 01 00:00:00 TRACK 14 AUDIO TITLE "We Are The Champions" PERFORMER "The London Starlight Orchestra & Singers" INDEX 00 03:33:40FILE "14. We Are The Champions.wav" WAVE INDEX 01 00:00:00 TRACK 15 AUDIO TITLE "Under Pressure" PERFORMER "The London Starlight Orchestra & Singers" INDEX 00 03:11:10FILE "15. Under Pressure.wav" WAVE INDEX 01 00:00:00 TRACK 16 AUDIO TITLE "Barcelona" PERFORMER "The London Starlight Orchestra & Singers" INDEX 00 03:56:10FILE "16. Barcelona.wav" WAVE INDEX 01 00:00:00

Лог проверки качества

AUDIOCHECKER v2.0 beta (build 457) - by Dester - opdester@freemail.hu~~~~~~~~~~~~~~~~~~~~~~~~~~~~~~~~~~
Started at: Воскресенье, 28. 07. 2013. - 2:08.4316 files found
01 -===- C:\Queen\The London Starlight Orchestra & Singers\01. Bohemian Rhapsody.flac Extracted successfully Conclusion: this track is CDDA with probability 100% Tempfile successfully deleted.
02 -===- C:\Queen\The London Starlight Orchestra & Singers\02. Who Wants To Live Forever.flac Extracted successfully Conclusion: this track is CDDA with probability 54% Tempfile successfully deleted.
03 -===- C:\Queen\The London Starlight Orchestra & Singers\03. Bicycle Race.flac Extracted successfully Conclusion: this track is CDDA with probability 100% Tempfile successfully deleted.
04 -===- C:\Queen\The London Starlight Orchestra & Singers\04. Another One Bites The Dust.flac Extracted successfully Conclusion: this track is CDDA with probability 100% Tempfile successfully deleted.
05 -===- C:\Queen\The London Starlight Orchestra & Singers\05. Don't Stop Me Now.flac Extracted successfully Conclusion: this track is CDDA with probability 100% Tempfile successfully deleted.
06 -===- C:\Queen\The London Starlight Orchestra & Singers\06. Killer Queen.flac Extracted successfully Conclusion: this track is CDDA with probability 100% Tempfile successfully deleted.
07 -===- C:\Queen\The London Starlight Orchestra & Singers\07. You're My Best Friend.flac Extracted successfully Conclusion: this track is CDDA with probability 99% Tempfile successfully deleted.
08 -===- C:\Queen\The London Starlight Orchestra & Singers\08. I Want It All.flac Extracted successfully Conclusion: this track is CDDA with probability 100% Tempfile successfully deleted.
09 -===- C:\Queen\The London Starlight Orchestra & Singers\09. The Show Must Go On.flac Extracted successfully Conclusion: this track is CDDA with probability 100% Tempfile successfully deleted.
10 -===- C:\Queen\The London Starlight Orchestra & Singers\10. Grazy Little Thing Called Love.flac Extracted successfully Conclusion: this track is CDDA with probability 100% Tempfile successfully deleted.
11 -===- C:\Queen\The London Starlight Orchestra & Singers\11. Play The Game.flac Extracted successfully Conclusion: this track is CDDA with probability 100% Tempfile successfully deleted.
12 -===- C:\Queen\The London Starlight Orchestra & Singers\12. Radio Ga Ga.flac Extracted successfully Conclusion: this track is CDDA with probability 99% Tempfile successfully deleted.
13 -===- C:\Queen\The London Starlight Orchestra & Singers\13. Friends Will Be Friends.flac Extracted successfully Conclusion: this track is CDDA with probability 100% Tempfile successfully deleted.
14 -===- C:\Queen\The London Starlight Orchestra & Singers\14. We Are The Champions.flac Extracted successfully Conclusion: this track is CDDA with probability 100% Tempfile successfully deleted.
15 -===- C:\Queen\The London Starlight Orchestra & Singers\15. Under Pressure.flac Extracted successfully Conclusion: this track is CDDA with probability 100% Tempfile successfully deleted.
16 -===- C:\Queen\The London Starlight Orchestra & Singers\16. Barcelona.flac Extracted successfully Conclusion: this track is CDDA with probability 43% Tempfile successfully deleted.
Finished at: Воскресенье, 28. 07. 2013. - 2:15.47 (operation time: 0:07.03)



Показать сообщения:    

Текущее время: 10-Дек 11:50

Часовой пояс: UTC + 3


Вы не можете начинать темы
Вы не можете отвечать на сообщения
Вы не можете редактировать свои сообщения
Вы не можете удалять свои сообщения
Вы не можете голосовать в опросах
Вы не можете прикреплять файлы к сообщениям
Вы не можете скачивать файлы