(Classical) VA - Classical Brit Awards - APE (image+.cue), lossless


 

[Цитировать]

Various Artists
Classical Brit Awards
Жанр: Classical
Год выпуска диска: unknown
Производитель диска: UK
Издатель (лейбл): Sunday Express/BPI
Номер по каталогу: unknown
Аудиокодек: APE (*.ape)
Битрейт аудио: lossless
Тип рипа: image+.cue
Продолжительность: 01:10:58
Источник (релизер): собственный рип
Наличие сканов в содержимом раздачи: да
Трэклист:
01. Gewandhousorchestra Leipzing/K. Masur - Allegro Con Brio (Part, Symphony No.5) - Beethoven
02. Caroline Dale/LMO - Allegro non molto:Sush Sweet Thunder (Concerto in G Minor) - Vivaldi
03. Maxim Vengerov - Csardas - Monti
04. Collegium Musicum 90/Richard Hickox from Chandos - Sanctus (Mass in D Major, op. 111) - Hummel Chandos
05. BerlinerPhilharmoniker Orchestra/Sir Simon Rattle - Adagietto (Symphony No.5) - Mahler
06. Murray Perahia - No.3 in Major, op. 10 (etudes) - Chapin
07. Dominic Miller - Mass in B Minor - Bach
08. "Bond" - Viva - Vivaldi (arr.)
09. Chloe Hanslip/London Symphony Orchestra - Finale: Allegro energico (Violin Concerto No.1) - Bruch
10. I Solisti Veneti/Claudio Scimone - Adagio in G Minor for Organ & Strings - Albione
11. Pavarotti - E lucevan le stelle(Tosca) - Puccini
12. Emily Gray - Bist du bei mir - J. S. Bach
13. London Mozart Players/Howard Shelley - Rondo, Vivo (Piano Concerto No.7, op.56) - Cramer Chandos
14. Jennifer Partridge/Piano Beryl Korman/Soprano - Plaisir d'Amour - Giovanni Martini
15. Maksim - Piano Concerto in A Minor - Grieg

Лог создания рипа

Exact Audio Copy V0.99 prebeta 5 from 4. May 2009
Отчёт EAC об извлечении, выполненном 1. января 2012, 10:47
Various / Classical Brit Awards
Дисковод: TSSTcorpCDDVDW SH-S223C Adapter: 3 ID: 0
Режим чтения : ДостоверностьИспользование точного потока : ДаОтключение кэша аудио : ДаИспользование указателей C2 : Нет
Коррекция смещения при чтении : 697Способность читать области Lead-in и Lead-out : НетЗаполнение пропущенных сэмплов тишиной : ДаУдаление блоков с тишиной в начале и конце : НетПри вычислениях CRC использовались нулевые сэмплы : ДаИнтерфейс : Установленный внешний ASPI-интерфейс
Выходной формат : Внутренние WAV-операцииФормат сэмплов : 44.100 Гц; 16 бит; стерео
TOC извлечённого CD
Трек | Старт | Длительность | Начальный сектор | Конечный сектор --------------------------------------------------------------------- 1 | 0:00.00 | 3:13.31 | 0 | 14505 2 | 3:13.31 | 3:32.03 | 14506 | 30408 3 | 6:45.34 | 6:07.58 | 30409 | 57991 4 | 12:53.17 | 2:22.54 | 57992 | 68695 5 | 15:15.71 | 9:29.14 | 68696 | 111384 6 | 24:45.10 | 3:52.15 | 111385 | 128799 7 | 28:37.25 | 4:02.55 | 128800 | 147004 8 | 32:40.05 | 3:16.14 | 147005 | 161718 9 | 35:56.19 | 6:55.30 | 161719 | 192873 10 | 42:51.49 | 8:15.49 | 192874 | 230047 11 | 51:07.23 | 3:12.08 | 230048 | 244455 12 | 54:19.31 | 2:12.15 | 244456 | 254370 13 | 56:31.46 | 6:46.39 | 254371 | 284859 14 | 63:18.10 | 3:34.49 | 284860 | 300958 15 | 66:52.59 | 4:04.63 | 300959 | 319321
Характеристики диапазона извлечения и сообщения об ошибках
Выбранный диапазон
Имя файла D:\[VA] Classical Brit Awards [CD] - year unknown (lossless)\01. Sound\Various - Classical Brit Awards.wav
Подозрительная позиция 1:09:18 - 1:09:20 Подозрительная позиция 1:09:26 - 1:09:27 Подозрительная позиция 1:09:31 - 1:09:32 Подозрительная позиция 1:09:36 Подозрительная позиция 1:09:38 - 1:09:40 Подозрительная позиция 1:09:42 Подозрительная позиция 1:09:44 - 1:10:56
Пиковый уровень 100.0 % Качество диапазона 97.4 % CRC теста 4EB4DB1C CRC копии 4EB4DB1C Копирование завершено
Были ошибки
AccurateRip: сводка
Трек 1 точное извлечение (доверие 7) [C66F7250]Трек 2 точное извлечение (доверие 7) [07A83F97]Трек 3 точное извлечение (доверие 7) [1934F8EF]Трек 4 точное извлечение (доверие 7) [E7D0BE20]Трек 5 точное извлечение (доверие 7) [2ABAD941]Трек 6 точное извлечение (доверие 7) [C733B26F]Трек 7 точное извлечение (доверие 7) [233B03E2]Трек 8 точное извлечение (доверие 7) [007182EA]Трек 9 точное извлечение (доверие 7) [7374C702]Трек 10 точное извлечение (доверие 7) [79BA960C]Трек 11 точное извлечение (доверие 7) [AF92B8A4]Трек 12 точное извлечение (доверие 7) [79CA93F0]Трек 13 точное извлечение (доверие 7) [20D81B85]Трек 14 точное извлечение (доверие 7) [E20B5969]Трек 15 точность не определена (достоверность 7) [13D466FF], AccurateRip вернул [962BFD4E]
14 трек(и) скопированы точно 1 трек(и) не удалось проверить на точность
Некоторые треки не прошли проверку на точность
Конец отчёта

Содержание индексной карты (.CUE)

REM GENRE ClassicalREM DISCID DD10A10FREM COMMENT "ExactAudioCopy v0.99pb5"PERFORMER "Various"TITLE "Classical Brit Awards"FILE "Various - Classical Brit Awards.ape" WAVE TRACK 01 AUDIO TITLE "Allegro Con Brio (Part, Symphony No.5) - Beethoven" PERFORMER "Gewandhousorchestra Leipzing/K. Masur" INDEX 01 00:00:00 TRACK 02 AUDIO TITLE "Allegro non molto:Sush Sweet Thunder (Concerto in G Minor) - Vivaldi" PERFORMER "Caroline Dale/LMO" INDEX 00 03:11:72 INDEX 01 03:13:31 TRACK 03 AUDIO TITLE "Csardas - Monti" PERFORMER "Maxim Vengerov" INDEX 00 06:44:00 INDEX 01 06:45:34 TRACK 04 AUDIO TITLE "Sanctus (Mass in D Major, op. 111) - Hummel Chandos" PERFORMER "Collegium Musicum 90/Richard Hickox from Chandos" INDEX 00 12:51:58 INDEX 01 12:53:17 TRACK 05 AUDIO TITLE "Adagietto (Symphony No.5) - Mahler" PERFORMER "BerlinerPhilharmoniker Orchestra/Sir Simon Rattle" INDEX 00 15:14:37 INDEX 01 15:15:71 TRACK 06 AUDIO TITLE "No.3 in Major, op. 10 (etudes) - Chapin" PERFORMER "Murray Perahia" INDEX 00 24:43:51 INDEX 01 24:45:10 TRACK 07 AUDIO TITLE "Mass in B Minor - Bach" PERFORMER "Dominic Miller" INDEX 00 28:35:66 INDEX 01 28:37:25 TRACK 08 AUDIO TITLE "Viva - Vivaldi (arr.)" PERFORMER "Bond" INDEX 00 32:38:46 INDEX 01 32:40:05 TRACK 09 AUDIO TITLE "Finale: Allegro energico (Violin Concerto No.1) - Bruch" PERFORMER "Chloe Hanslip/London Symphony Orchestra" INDEX 00 35:54:60 INDEX 01 35:56:19 TRACK 10 AUDIO TITLE "Adagio in G Minor for Organ & Strings - Albione" PERFORMER "I Solisti Veneti/Claudio Scimone" INDEX 00 42:50:15 INDEX 01 42:51:49 TRACK 11 AUDIO TITLE "E lucevan le stelle(Tosca) - Puccini" PERFORMER "Pavarotti" INDEX 00 51:05:64 INDEX 01 51:07:23 TRACK 12 AUDIO TITLE "Bist du bei mir - J. S. Bach" PERFORMER "Emily Gray" INDEX 00 54:17:72 INDEX 01 54:19:31 TRACK 13 AUDIO TITLE "Rondo, Vivo (Piano Concerto No.7, op.56) - Cramer Chandos" PERFORMER "London Mozart Players/Howard Shelley" INDEX 00 56:30:12 INDEX 01 56:31:46 TRACK 14 AUDIO TITLE "Plaisir d'Amour - Giovanni Martini" PERFORMER "Jennifer Partridge/Piano Beryl Korman/Soprano" INDEX 00 63:16:51 INDEX 01 63:18:10 TRACK 15 AUDIO TITLE "Piano Concerto in A Minor - Grieg" PERFORMER "Maksim" INDEX 00 66:51:25 INDEX 01 66:52:59

Лог проверки качества

AUDIOCHECKER v2.0 beta (build 457) - by Dester - opdester@freemail.hu~~~~~~~~~~~~~~~~~~~~~~~~~~~~~~~~~~
Начато: воскресенье, 01. 01. 2012. - 12:06.46Найдено файлов: 1
1 -===- D:\torrent razdacha\[VA] Classical Brit Awards [CD] - year unknown (lossless)\01. Sound\Various - Classical Brit Awards.ape Извлечение успешно выполнено Заключение: этот трек - CDDA с вероятностью 100% Временный файл удалён.
Завершено: воскресенье, 01. 01. 2012. - 12:12.36 (Время операции: 0:05.50)

Tau Analyzer

Covers

-Раздача восстановлена (отсутствовал лог-файл) 25.06.2013.



Показать сообщения:    

Текущее время: 08-Дек 23:09

Часовой пояс: UTC + 3


Вы не можете начинать темы
Вы не можете отвечать на сообщения
Вы не можете редактировать свои сообщения
Вы не можете удалять свои сообщения
Вы не можете голосовать в опросах
Вы не можете прикреплять файлы к сообщениям
Вы не можете скачивать файлы