(Easy Listening, Classical Crossover, Flute) Anneke de Vries - Con amore - 1987, FLAC (image+.cue), lossless


 

[Цитировать]

-Anneke de Vries / Con amore-
Жанр : Easy Listening
Год выпуска диска : 1987
Производитель диска : Германия
Аудио кодек : FLAC
Тип рипа : image+.cue (Test & Copy)
Битрейт аудио : lossless
Продолжительность : 46:07
Лейбл : Philips
Каталожный номер : 0042283224025
Источник (релизер): Рип оригинального диска из личной коллекции
Сканы: прилагаются


01. Pantomime (Gretry)
02. Andante (Haydn)
03. Carrousel (Godard)
04. Laudate Dominum (Mozart)
05. Bolero (Ravel)
06. Le cygne (Saint-Saens)
07. Menuet (Telemann)
08. Poco adagio (Mozart)
09. Allegro (Vivaldi)
10. La serenata (Braga)
11. Ouverture (Rossini)
12. Adagietto (Mahler)
-
Anneke de Vries, флейта
Harry van Hoof, аранжировщик и дирижер
Louis van Dijk, рояль, аранжировщик (только #8)


-

Лог создания рипа

Exact Audio Copy V1.0 beta 3 from 29. August 2011
EAC extraction logfile from 9. February 2013, 12:02
Anneke de Vries / Con Amore (Philips 832 240-2)
Used drive : TSSTcorpCDDVDW TS-L633C Adapter: 2 ID: 0
Read mode : SecureUtilize accurate stream : YesDefeat audio cache : YesMake use of C2 pointers : No
Read offset correction : 6Overread into Lead-In and Lead-Out : NoFill up missing offset samples with silence : YesDelete leading and trailing silent blocks : NoNull samples used in CRC calculations : YesUsed interface : Native Win32 interface for Win NT & 2000
Used output format : Internal WAV RoutinesSample format : 44.100 Hz; 16 Bit; Stereo
TOC of the extracted CD
Track | Start | Length | Start sector | End sector --------------------------------------------------------- 1 | 0:00.32 | 3:25.58 | 32 | 15464 2 | 3:26.15 | 3:59.02 | 15465 | 33391 3 | 7:25.17 | 3:30.23 | 33392 | 49164 4 | 10:55.40 | 4:47.32 | 49165 | 70721 5 | 15:42.72 | 5:04.53 | 70722 | 93574 6 | 20:47.50 | 2:53.57 | 93575 | 106606 7 | 23:41.32 | 3:48.05 | 106607 | 123711 8 | 27:29.37 | 5:26.10 | 123712 | 148171 9 | 32:55.47 | 2:41.20 | 148172 | 160266 10 | 35:36.67 | 3:29.58 | 160267 | 175999 11 | 39:06.50 | 4:09.42 | 176000 | 194716 12 | 43:16.17 | 2:51.23 | 194717 | 207564
Range status and errors
Selected range
Filename C:\Users\user\Desktop\Anneke de Vries - Con Amore (Philips 832 240-2).wav
Peak level 100.0 % Extraction speed 1.3 X Range quality 99.9 % Test CRC 819685F6 Copy CRC 819685F6 Copy OK
No errors occurred
AccurateRip summary
Track 1 accurately ripped (confidence 1) [57C9153C] (AR v2)Track 2 accurately ripped (confidence 1) [9D1F15A4] (AR v2)Track 3 accurately ripped (confidence 1) [C063A37D] (AR v2)Track 4 accurately ripped (confidence 1) [98AFEB53] (AR v2)Track 5 accurately ripped (confidence 1) [8BC551CE] (AR v2)Track 6 accurately ripped (confidence 1) [7D8D8766] (AR v2)Track 7 accurately ripped (confidence 1) [7C7CF394] (AR v2)Track 8 accurately ripped (confidence 1) [69905095] (AR v2)Track 9 accurately ripped (confidence 1) [98AE9AF1] (AR v2)Track 10 accurately ripped (confidence 1) [C59ADB92] (AR v2)Track 11 accurately ripped (confidence 1) [1FCA2F21] (AR v2)Track 12 accurately ripped (confidence 1) [74338ED7] (AR v2)
All tracks accurately ripped
End of status report

Содержание индексной карты (.CUE)

REM GENRE ClassicalREM DATE 1987REM DISCID B40ACF0CREM COMMENT "ExactAudioCopy v1.0b3"PERFORMER "Anneke de Vries"TITLE "Con Amore (Philips 832 240-2)"FILE "Anneke de Vries - Con Amore (Philips 832 240-2).flac" WAVE TRACK 01 AUDIO TITLE "Pantomime" PERFORMER "Anneke de Vries" INDEX 00 00:00:00 INDEX 01 00:00:32 TRACK 02 AUDIO TITLE "Andante" PERFORMER "Anneke de Vries" INDEX 00 03:23:62 INDEX 01 03:26:15 TRACK 03 AUDIO TITLE "Carrousel" PERFORMER "Anneke de Vries" INDEX 00 07:23:70 INDEX 01 07:25:17 TRACK 04 AUDIO TITLE "Laudate Dominum" PERFORMER "Anneke de Vries" INDEX 00 10:54:22 INDEX 01 10:55:40 TRACK 05 AUDIO TITLE "Bolero" PERFORMER "Anneke de Vries" INDEX 00 15:41:67 INDEX 01 15:42:72 TRACK 06 AUDIO TITLE "Le cygne" PERFORMER "Anneke de Vries" INDEX 00 20:45:57 INDEX 01 20:47:50 TRACK 07 AUDIO TITLE "Menuet" PERFORMER "Anneke de Vries" INDEX 00 23:38:65 INDEX 01 23:41:32 TRACK 08 AUDIO TITLE "Poco adagio" PERFORMER "Anneke de Vries" INDEX 00 27:28:02 INDEX 01 27:29:37 TRACK 09 AUDIO TITLE "Allegro" PERFORMER "Anneke de Vries" INDEX 00 32:53:42 INDEX 01 32:55:47 TRACK 10 AUDIO TITLE "La serenata" PERFORMER "Anneke de Vries" INDEX 00 35:35:40 INDEX 01 35:36:67 TRACK 11 AUDIO TITLE "Ouverture" PERFORMER "Anneke de Vries" INDEX 00 39:04:57 INDEX 01 39:06:50 TRACK 12 AUDIO TITLE "Adagietto" PERFORMER "Anneke de Vries" INDEX 00 43:15:27 INDEX 01 43:16:17



Показать сообщения:    

Текущее время: 06-Дек 17:05

Часовой пояс: UTC + 3


Вы не можете начинать темы
Вы не можете отвечать на сообщения
Вы не можете редактировать свои сообщения
Вы не можете удалять свои сообщения
Вы не можете голосовать в опросах
Вы не можете прикреплять файлы к сообщениям
Вы не можете скачивать файлы