(Classical Crossover) Andrea Bocelli - Passione (German Deluxe Edition) - 2013, FLAC (tracks+.cue) lossless


 

[Цитировать]

Andrea Bocelli - Passione (German Deluxe Edition)-Жанр: Classical Crossover
Производитель диска: EDC, Germany
Год издания диска: 2013
Издатель (лейбл): Sugar
Номер по каталогу: 06025 3727365 2-Аудиокодек: FLAC
Тип рипа: tracks+.cue
Битрейт аудио: lossless
Продолжительность: 01:09:01
Источник: собственный рип
Наличие сканов в содержимом раздачи: да, 600 dpi

Треклист

01. Perfidia [0:04:08.14]
02. Roma Nun Fa' La Stupida Stasera [0:04:14.25]
03. Champagne [0:03:49.72]
04. Anema E Core [0:04:10.17]
05. Andrea Bocelli feat. Jennifer Lopez / Quizas, Quizas, Quizas [0:03:18.40]
06. Era Gia Tutto Previsto [0:03:43.57]
07. Tristeza [0:03:24.56]
08. Andrea Bocelli & Edith Piaf / La Vie En Rose [0:03:08.34]
09. Andrea Bocelli feat. Nelly Furtado / Corcovado - Quiet Nights Of Quiet Stars [0:03:36.51]
10. Sara Settembre (September Morn) [0:03:42.48]
11. Love In Portofino [0:03:01.21]
12. Garota De Ipanema [0:03:38.09]
13. Malafemmena [0:04:18.43]
14. Love Me Tender [0:03:52.71]
15. Andrea Bocelli feat. Chris Botti / Il Nostro Incontro [0:04:33.08]
16. Senza Fine [0:03:18.10]
17. A Mano A Mano [0:04:19.25]
18. Andrea Bocelli & Helene Fischer, feat. Chris Botti / When I Fall In Love [0:04:41.57]

Лог создания рипа

Exact Audio Copy V1.0 beta 3 from 29. August 2011
EAC extraction logfile from 2. February 2013, 10:34
Andrea Bocelli / Passione (Deluxe Edition)
Used drive : PLEXTOR CD-R PX-230A Adapter: 0 ID: 0
Read mode : SecureUtilize accurate stream : YesDefeat audio cache : YesMake use of C2 pointers : No
Read offset correction : 738Overread into Lead-In and Lead-Out : NoFill up missing offset samples with silence : YesDelete leading and trailing silent blocks : NoNull samples used in CRC calculations : YesUsed interface : Native Win32 interface for Win NT & 2000Gap handling : Appended to previous track
Used output format : User Defined EncoderSelected bitrate : 1024 kBit/sQuality : HighAdd ID3 tag : NoCommand line compressor : C:\Program Files\Exact Audio Copy\Flac\flac.exeAdditional command line options : -6 -V -T "ARTIST=%artist%" -T "TITLE=%title%" -T "ALBUM=%albumtitle%" -T "DATE=%year%" -T "TRACKNUMBER=%tracknr%" -T "GENRE=%genre%" -T "COMMENT=%comment%" -T "ALBUMARTIST=%albuminterpret%" -T "COMPOSER=%composer%" -T "DISCNUMBER=%cdnumber%" -T "TOTALDISCS=%totalcds%" -T "TOTALTRACKS=%numtracks%" %source% -o %dest%
TOC of the extracted CD
Track | Start | Length | Start sector | End sector --------------------------------------------------------- 1 | 0:00.21 | 4:08.14 | 21 | 18634 2 | 4:08.35 | 4:14.25 | 18635 | 37709 3 | 8:22.60 | 3:49.72 | 37710 | 54956 4 | 12:12.57 | 4:10.17 | 54957 | 73723 5 | 16:22.74 | 3:18.40 | 73724 | 88613 6 | 19:41.39 | 3:43.57 | 88614 | 105395 7 | 23:25.21 | 3:24.56 | 105396 | 120751 8 | 26:50.02 | 3:08.34 | 120752 | 134885 9 | 29:58.36 | 3:36.51 | 134886 | 151136 10 | 33:35.12 | 3:42.48 | 151137 | 167834 11 | 37:17.60 | 3:01.21 | 167835 | 181430 12 | 40:19.06 | 3:38.09 | 181431 | 197789 13 | 43:57.15 | 4:18.43 | 197790 | 217182 14 | 48:15.58 | 3:52.71 | 217183 | 234653 15 | 52:08.54 | 4:33.08 | 234654 | 255136 16 | 56:41.62 | 3:18.10 | 255137 | 269996 17 | 59:59.72 | 4:19.25 | 269997 | 289446 18 | 64:19.22 | 4:41.57 | 289447 | 310578
Track 1
Filename C:\Music\01 - Andrea Bocelli - Perfidia.wav
Pre-gap length 0:00:02.21
Peak level 99.8 % Extraction speed 3.8 X Track quality 100.0 % Test CRC 1FA953EB Copy CRC 1FA953EB Track not present in AccurateRip database Copy OK
Track 2
Filename C:\Music\02 - Andrea Bocelli - Roma Nun Fa' La Stupida Stasera.wav
Pre-gap length 0:00:01.52
Peak level 99.8 % Extraction speed 4.3 X Track quality 100.0 % Test CRC 7579215F Copy CRC 7579215F Track not present in AccurateRip database Copy OK
Track 3
Filename C:\Music\03 - Andrea Bocelli - Champagne.wav
Pre-gap length 0:00:01.54
Peak level 99.8 % Extraction speed 4.1 X Track quality 100.0 % Test CRC 3872B8B6 Copy CRC 3872B8B6 Track not present in AccurateRip database Copy OK
Track 4
Filename C:\Music\04 - Andrea Bocelli - Anema E Core.wav
Pre-gap length 0:00:01.47
Peak level 99.8 % Extraction speed 4.2 X Track quality 100.0 % Test CRC F7767789 Copy CRC F7767789 Track not present in AccurateRip database Copy OK
Track 5
Filename C:\Music\05 - Andrea Bocelli feat. Jennifer Lopez - Quizas, Quizas, Quizas.wav
Pre-gap length 0:00:01.73
Peak level 99.8 % Extraction speed 5.8 X Track quality 99.9 % Test CRC 58FCCDA5 Copy CRC 58FCCDA5 Track not present in AccurateRip database Copy OK
Track 6
Filename C:\Music\06 - Andrea Bocelli - Era Gia Tutto Previsto.wav
Pre-gap length 0:00:00.24
Peak level 99.8 % Extraction speed 7.1 X Track quality 99.9 % Test CRC 1183A2E9 Copy CRC 1183A2E9 Track not present in AccurateRip database Copy OK
Track 7
Filename C:\Music\07 - Andrea Bocelli - Tristeza.wav
Pre-gap length 0:00:02.43
Peak level 99.8 % Extraction speed 4.3 X Track quality 100.0 % Test CRC 9C7A45ED Copy CRC 9C7A45ED Track not present in AccurateRip database Copy OK
Track 8
Filename C:\Music\08 - Andrea Bocelli & Edith Piaf - La Vie En Rose.wav
Pre-gap length 0:00:00.55
Peak level 99.8 % Extraction speed 7.4 X Track quality 100.0 % Test CRC 25BA8CCE Copy CRC 25BA8CCE Track not present in AccurateRip database Copy OK
Track 9
Filename C:\Music\09 - Andrea Bocelli feat. Nelly Furtado - Corcovado - Quiet Nights Of Quiet Stars.wav
Pre-gap length 0:00:01.56
Peak level 99.8 % Extraction speed 9.1 X Track quality 100.0 % Test CRC CAC9F73E Copy CRC CAC9F73E Track not present in AccurateRip database Copy OK
Track 10
Filename C:\Music\10 - Andrea Bocelli - Sara Settembre (September Morn).wav
Pre-gap length 0:00:01.66
Peak level 99.8 % Extraction speed 9.4 X Track quality 100.0 % Test CRC 309D181C Copy CRC 309D181C Track not present in AccurateRip database Copy OK
Track 11
Filename C:\Music\11 - Andrea Bocelli - Love In Portofino.wav
Pre-gap length 0:00:02.21
Peak level 99.8 % Extraction speed 8.3 X Track quality 99.9 % Test CRC 92770175 Copy CRC 92770175 Track not present in AccurateRip database Copy OK
Track 12
Filename C:\Music\12 - Andrea Bocelli - Garota De Ipanema.wav
Pre-gap length 0:00:01.53
Peak level 99.8 % Extraction speed 8.9 X Track quality 99.9 % Test CRC 89EADBC2 Copy CRC 89EADBC2 Track not present in AccurateRip database Copy OK
Track 13
Filename C:\Music\13 - Andrea Bocelli - Malafemmena.wav
Pre-gap length 0:00:01.71
Peak level 100.0 % Extraction speed 10.3 X Track quality 100.0 % Test CRC 69271F8C Copy CRC 69271F8C Track not present in AccurateRip database Copy OK
Track 14
Filename C:\Music\14 - Andrea Bocelli - Love Me Tender.wav
Pre-gap length 0:00:01.37
Peak level 100.0 % Extraction speed 10.4 X Track quality 100.0 % Test CRC FE724D3A Copy CRC FE724D3A Track not present in AccurateRip database Copy OK
Track 15
Filename C:\Music\15 - Andrea Bocelli feat. Chris Botti - Il Nostro Incontro.wav
Pre-gap length 0:00:00.66
Peak level 100.0 % Extraction speed 10.8 X Track quality 100.0 % Test CRC 7F92138C Copy CRC 7F92138C Track not present in AccurateRip database Copy OK
Track 16
Filename C:\Music\16 - Andrea Bocelli - Senza Fine.wav
Pre-gap length 0:00:01.07
Peak level 100.0 % Extraction speed 10.8 X Track quality 100.0 % Test CRC 58108203 Copy CRC 58108203 Track not present in AccurateRip database Copy OK
Track 17
Filename C:\Music\17 - Andrea Bocelli - A Mano A Mano.wav
Pre-gap length 0:00:01.00
Peak level 100.0 % Extraction speed 10.8 X Track quality 100.0 % Test CRC FD414969 Copy CRC FD414969 Track not present in AccurateRip database Copy OK
Track 18
Filename C:\Music\18 - Andrea Bocelli & Helene Fischer, feat. Chris Botti - When I Fall In Love.wav
Pre-gap length 0:00:00.01
Peak level 100.0 % Extraction speed 11.4 X Track quality 100.0 % Test CRC 9CCA549A Copy CRC 9CCA549A Track not present in AccurateRip database Copy OK
None of the tracks are present in the AccurateRip database
No errors occurred
End of status report
==== Log checksum 40A13CDDD7EED300B9789E7D172E1D0D857C7011E979BC1F304C87D79B2924DB ====

Содержание индексной карты (.CUE)

REM GENRE ClassicalREM DATE 2013REM DISCID DF102D12REM COMMENT "ExactAudioCopy v1.0b3"PERFORMER "Andrea Bocelli"TITLE "Passione (Deluxe Edition)"FILE "01 - Andrea Bocelli - Perfidia.wav" WAVE TRACK 01 AUDIO TITLE "Perfidia" PERFORMER "Andrea Bocelli" FLAGS DCP PREGAP 00:00:21 INDEX 01 00:00:00 TRACK 02 AUDIO TITLE "Roma Nun Fa' La Stupida Stasera" PERFORMER "Andrea Bocelli" FLAGS DCP INDEX 00 04:06:37FILE "02 - Andrea Bocelli - Roma Nun Fa' La Stupida Stasera.wav" WAVE INDEX 01 00:00:00 TRACK 03 AUDIO TITLE "Champagne" PERFORMER "Andrea Bocelli" FLAGS DCP INDEX 00 04:12:46FILE "03 - Andrea Bocelli - Champagne.wav" WAVE INDEX 01 00:00:00 TRACK 04 AUDIO TITLE "Anema E Core" PERFORMER "Andrea Bocelli" FLAGS DCP INDEX 00 03:48:25FILE "04 - Andrea Bocelli - Anema E Core.wav" WAVE INDEX 01 00:00:00 TRACK 05 AUDIO TITLE "Quizas, Quizas, Quizas" PERFORMER "Andrea Bocelli feat. Jennifer Lopez" FLAGS DCP INDEX 00 04:08:19FILE "05 - Andrea Bocelli feat. Jennifer Lopez - Quizas, Quizas, Quizas.wav" WAVE INDEX 01 00:00:00 TRACK 06 AUDIO TITLE "Era Gia Tutto Previsto" PERFORMER "Andrea Bocelli" FLAGS DCP INDEX 00 03:18:16FILE "06 - Andrea Bocelli - Era Gia Tutto Previsto.wav" WAVE INDEX 01 00:00:00 TRACK 07 AUDIO TITLE "Tristeza" PERFORMER "Andrea Bocelli" FLAGS DCP INDEX 00 03:41:14FILE "07 - Andrea Bocelli - Tristeza.wav" WAVE INDEX 01 00:00:00 TRACK 08 AUDIO TITLE "La Vie En Rose" PERFORMER "Andrea Bocelli & Edith Piaf" FLAGS DCP INDEX 00 03:24:01FILE "08 - Andrea Bocelli & Edith Piaf - La Vie En Rose.wav" WAVE INDEX 01 00:00:00 TRACK 09 AUDIO TITLE "Corcovado - Quiet Nights Of Quiet Stars" PERFORMER "Andrea Bocelli feat. Nelly Furtado" FLAGS DCP INDEX 00 03:06:53FILE "09 - Andrea Bocelli feat. Nelly Furtado - Corcovado - Quiet Nights Of Quiet Stars.wav" WAVE INDEX 01 00:00:00 TRACK 10 AUDIO TITLE "Sara Settembre (September Morn)" PERFORMER "Andrea Bocelli" FLAGS DCP INDEX 00 03:34:60FILE "10 - Andrea Bocelli - Sara Settembre (September Morn).wav" WAVE INDEX 01 00:00:00 TRACK 11 AUDIO TITLE "Love In Portofino" PERFORMER "Andrea Bocelli" FLAGS DCP INDEX 00 03:40:27FILE "11 - Andrea Bocelli - Love In Portofino.wav" WAVE INDEX 01 00:00:00 TRACK 12 AUDIO TITLE "Garota De Ipanema" PERFORMER "Andrea Bocelli" FLAGS DCP INDEX 00 02:59:43FILE "12 - Andrea Bocelli - Garota De Ipanema.wav" WAVE INDEX 01 00:00:00 TRACK 13 AUDIO TITLE "Malafemmena" PERFORMER "Andrea Bocelli" FLAGS DCP INDEX 00 03:36:13FILE "13 - Andrea Bocelli - Malafemmena.wav" WAVE INDEX 01 00:00:00 TRACK 14 AUDIO TITLE "Love Me Tender" PERFORMER "Andrea Bocelli" FLAGS DCP INDEX 00 04:17:06FILE "14 - Andrea Bocelli - Love Me Tender.wav" WAVE INDEX 01 00:00:00 TRACK 15 AUDIO TITLE "Il Nostro Incontro" PERFORMER "Andrea Bocelli feat. Chris Botti" FLAGS DCP INDEX 00 03:52:05FILE "15 - Andrea Bocelli feat. Chris Botti - Il Nostro Incontro.wav" WAVE INDEX 01 00:00:00 TRACK 16 AUDIO TITLE "Senza Fine" PERFORMER "Andrea Bocelli" FLAGS DCP INDEX 00 04:32:01FILE "16 - Andrea Bocelli - Senza Fine.wav" WAVE INDEX 01 00:00:00 TRACK 17 AUDIO TITLE "A Mano A Mano" PERFORMER "Andrea Bocelli" FLAGS DCP INDEX 00 03:17:10FILE "17 - Andrea Bocelli - A Mano A Mano.wav" WAVE INDEX 01 00:00:00 TRACK 18 AUDIO TITLE "When I Fall In Love" PERFORMER "Andrea Bocelli & Helene Fischer, feat. Chris Botti" FLAGS DCP INDEX 00 04:19:24FILE "18 - Andrea Bocelli & Helene Fischer, feat. Chris Botti - When I Fall In Love.wav" WAVE INDEX 01 00:00:00



Показать сообщения:    

Текущее время: 11-Дек 03:15

Часовой пояс: UTC + 3


Вы не можете начинать темы
Вы не можете отвечать на сообщения
Вы не можете редактировать свои сообщения
Вы не можете удалять свои сообщения
Вы не можете голосовать в опросах
Вы не можете прикреплять файлы к сообщениям
Вы не можете скачивать файлы