(Classical Crossover) Дмитрий Наумов, Hiromi Yano - Балалайка en Baroque - 2012, WavPack (iso.wv) lossless


 

[Цитировать]

Балалайка en Baroque - Jasques Aubert, Jean-Philippe Rameau, Francois Couperin, Giuseppe Domenico Scarlatti, Georg Friedrich Handel
Louis-Claude Daquin, Fiocco, Jean-Baptiste Lully, Jean-Joseph Cassanea de Mondonville
(Дмитрий Наумов, балалайка;Hiromi Yano, piano)
Жанр: Classical Crossover
Страна-производитель диска: Россия
Год издания диска: 2012
Издатель (лейбл): Stereo & Video
Номер по каталогу: SVCD - 168
Страна: Россия
Аудиокодек: WavPack
Тип рипа: iso.wv
Битрейт аудио: lossless
Продолжительность: 34:51
Источник: NetLab, shatterhand
Наличие сканов в содержимом раздачи: да
Треклист:
01. Ж.Обер - Жига (4:18)
02. Ж.Ф.Рамо - Тамбурин (1:20)
03. Ф.Куперен - Маленькие Ветряные Мельницы (2:00)
04. Д.Скарлатти - Соната C-Dur (K.159 L.104) (2:34)
05. Г.Ф.Гендель - Прелюдия (1:06)
06. Л.К.Дакен - Кукушка (2:01)
07. П.Фиокко - Аллегро (2:55)
08. Д.Скарлатти - Соната E-Dur (K.380 L.23) (5:05)
09. Ж.Ф.Рамо - Ригодон (2:09)
10. Ж.Б.Люлли - Гавот (1:58)
11. Д.Скарлатти - Соната E-Moll (K.198 L.22) (3:16)
12. Ж.Ф.Рамо - Деревня (2:54)
13. Ж.Ж.Мондонвиль - Тамбурин (3:15)

Перечень файлов (содержимое) контейнера в текстовом виде.

1. Содержимое CUE-файла.
2. Отчёт ЕАС.
3. Аудиофайл (.wv)
4. Сканы: Front, Back, Disk (полные) JPEG;
5. Сканы front, back, CD jpeg
6. Тех. данные

Лог создания рипа

Exact Audio Copy V1.0 beta 3 from 29. August 2011
EAC extraction logfile from 17. February 2013, 19:53
Дмитрий Наумов / Балалайка en Baroque
Used drive : TSSTcorpCDDVDW SH-S223F Adapter: 3 ID: 0
Read mode : SecureUtilize accurate stream : YesDefeat audio cache : YesMake use of C2 pointers : No
Read offset correction : 6Overread into Lead-In and Lead-Out : NoFill up missing offset samples with silence : YesDelete leading and trailing silent blocks : NoNull samples used in CRC calculations : YesUsed interface : Native Win32 interface for Win NT & 2000
Used output format : User Defined EncoderSelected bitrate : 1024 kBit/sQuality : HighAdd ID3 tag : NoCommand line compressor : C:\Program Files\Exact Audio Copy\wavpack.exeAdditional command line options : -hm %source% %dest%
TOC of the extracted CD
Track | Start | Length | Start sector | End sector --------------------------------------------------------- 1 | 0:00.00 | 4:18.24 | 0 | 19373 2 | 4:18.24 | 1:20.32 | 19374 | 25405 3 | 5:38.56 | 1:59.40 | 25406 | 34370 4 | 7:38.21 | 2:33.49 | 34371 | 45894 5 | 10:11.70 | 1:06.22 | 45895 | 50866 6 | 11:18.17 | 2:01.19 | 50867 | 59960 7 | 13:19.36 | 2:54.41 | 59961 | 73051 8 | 16:14.02 | 5:05.37 | 73052 | 95963 9 | 21:19.39 | 2:08.72 | 95964 | 105635 10 | 23:28.36 | 1:57.59 | 105636 | 114469 11 | 25:26.20 | 3:16.12 | 114470 | 129181 12 | 28:42.32 | 2:54.24 | 129182 | 142255 13 | 31:36.56 | 3:14.64 | 142256 | 156869
Range status and errors
Selected range
Filename C:\iso\Дмитрий Наумов - Балалайка en Baroque\Дмитрий Наумов - Балалайка en Baroque.wav
Peak level 96.6 % Extraction speed 2.4 X Range quality 99.9 % Test CRC 7084A890 Copy CRC 7084A890 Copy OK
No errors occurred
AccurateRip summary
Track 1 accurately ripped (confidence 1) [6B762D1A] (AR v2)Track 2 accurately ripped (confidence 1) [43BFF392] (AR v2)Track 3 accurately ripped (confidence 1) [6E8D9FD4] (AR v2)Track 4 accurately ripped (confidence 1) [D650A67D] (AR v2)Track 5 accurately ripped (confidence 1) [7C2747E4] (AR v2)Track 6 accurately ripped (confidence 1) [5B26D094] (AR v2)Track 7 accurately ripped (confidence 1) [906A3CA8] (AR v2)Track 8 accurately ripped (confidence 1) [B32E4DFC] (AR v2)Track 9 accurately ripped (confidence 1) [835FBE72] (AR v2)Track 10 accurately ripped (confidence 1) [634445CA] (AR v2)Track 11 accurately ripped (confidence 1) [704860BF] (AR v2)Track 12 accurately ripped (confidence 1) [CECC3DC9] (AR v2)Track 13 accurately ripped (confidence 1) [AA373176] (AR v2)
All tracks accurately ripped
End of status report
==== Log checksum DCE500E02FFA275AD12451C42CBEDA23990EABFF2855733D2282434DE049F37B ====

Содержание индексной карты (.CUE)

REM GENRE "Classical"REM DATE 2012REM DISCID 9C082B0DREM COMMENT "ExactAudioCopy v1.0b3"PERFORMER "Дмитрий Наумов"TITLE "Балалайка en Baroque"FILE "Dmitrij Naumov - 2012 - Balalajka en Baroque (Stereo&Video SVCD-168) [NL+].wv" WAVE TRACK 01 AUDIO TITLE "Ж.Обер - Жига" PERFORMER "Дмитрий Наумов" INDEX 01 00:00:00 TRACK 02 AUDIO TITLE "Ж.Ф.Рамо - Тамбурин" PERFORMER "Дмитрий Наумов" INDEX 01 04:18:24 TRACK 03 AUDIO TITLE "Ф.Куперен - Маленькие Ветряные Мельницы" PERFORMER "Дмитрий Наумов" INDEX 01 05:38:56 TRACK 04 AUDIO TITLE "Д.Скарлатти - Соната C-Dur (K.159 L.104)" PERFORMER "Дмитрий Наумов" INDEX 01 07:38:21 TRACK 05 AUDIO TITLE "Г.Ф.Гендель - Прелюдия" PERFORMER "Дмитрий Наумов" INDEX 01 10:11:70 TRACK 06 AUDIO TITLE "Л.К.Дакен - Кукушка" PERFORMER "Дмитрий Наумов" INDEX 01 11:18:17 TRACK 07 AUDIO TITLE "П.Фиокко - Аллегро" PERFORMER "Дмитрий Наумов" INDEX 01 13:19:36 TRACK 08 AUDIO TITLE "Д.Скарлатти - Соната E-Dur (K.380 L.23)" PERFORMER "Дмитрий Наумов" INDEX 01 16:14:02 TRACK 09 AUDIO TITLE "Ж.Ф.Рамо - Ригодон" PERFORMER "Дмитрий Наумов" INDEX 01 21:19:39 TRACK 10 AUDIO TITLE "Ж.Б.Люлли - Гавот" PERFORMER "Дмитрий Наумов" INDEX 01 23:28:36 TRACK 11 AUDIO TITLE "Д.Скарлатти - Соната E-Moll (K.198 L.22)" PERFORMER "Дмитрий Наумов" INDEX 01 25:26:20 TRACK 12 AUDIO TITLE "Ж.Ф.Рамо - Деревня" PERFORMER "Дмитрий Наумов" INDEX 01 28:42:32 TRACK 13 AUDIO TITLE "Ж.Ж.Мондонвиль - Тамбурин" PERFORMER "Дмитрий Наумов" INDEX 01 31:36:56

Лог проверки качества

Скриншот спектра частот

Об исполнителе (группе)

Состав

Дмитрий Наумов, балалайка
Hiromi Yano, piano



Показать сообщения:    

Текущее время: 08-Дек 09:04

Часовой пояс: UTC + 3


Вы не можете начинать темы
Вы не можете отвечать на сообщения
Вы не можете редактировать свои сообщения
Вы не можете удалять свои сообщения
Вы не можете голосовать в опросах
Вы не можете прикреплять файлы к сообщениям
Вы не можете скачивать файлы