(Classical, Rock) Various (Nigel Kennedy, David Garrett, Apocalyptica, Prague Symphony Orchestra, Prague Philharmonic Orchestra, London Philharmonic Orchestra, Vienna Symphonic Orchestra) - Rock Meets Classic 2 - 2012, WavPack (iso.wv) lossless


 

[Цитировать]

Various (Nigel Kennedy, David Garrett, Apocalyptica, Prague Symphony Orchestra, Prague Philharmonic Orchestra, London Philharmonic Orchestra, Vienna Symphonic Orchestra) - Rock Meets Classic 2 Жанр: Classical, Rock
Страна-производитель диска: Germany
Год издания диска: 2012
Издатель (лейбл): Universal Music Classics & Jazz
Номер по каталогу: 534 005-7
Дата записи: 1986-2010
Аудиокодек: WavPack
Тип рипа: iso.wv
Битрейт аудио: lossless
Продолжительность: 1:19:07
Источник: Гордый, NetLab
Наличие сканов в содержимом раздачи: да

TrackList

01. Bohemian Rhapsody 06:10
(Mercury) Queen Music Ltd.
Original: Queen, auf dem Album "A Night at the Opera"
The City Of Prague Philharmonic Orchestra • James Morgan
02. Mission: Impossible 03:17
(Schifrin/Garrett) Sony ATV Music Publishing
Original: Lalo Schifrin. auf dem Album "Mission: Impossible (Music From The Original Television Soundtrack)"
David Garrett • The City Of Prague Philharmonic Orchestra
03. Riders on the Storm 06:17
(The Doors/Coleman) Doors Music Inc.
Original: The Doors. auf dem Album "LA. Woman"
Nigel Kennedy •
Prague Symphony Orchestra • Peter Scholes

04. When the Levee Breaks 07:14
(Led Zeppelin/Minnie/Coleman) Superhype Publishing Inc.
Original: Led Zeppelin, auf dem Album "Led Zeppelin IV"
London Philharmonic Orchestra • Peter Scholes
05. A View to a Kill 04:06
(Duran Duran/Barry) Tritec Music Ltd./CBS Songs
Original: Duran Duran, auf dem Album "A View to a Kill"
Vienna Symphonic Orchestra • Christian Kolonovits
06 Conquest of Paradise 03:50
(Papathanassiou) Spheric B.V.
Original: Vangelis, auf dem Album "1492: Conquest of Paradise"
Vienna Symphonic Orchestra • Christian Kolonovits
07. Brothers in Arms 06:05
(Knopfler/Bertl) Chariscuort Ltd./Rondor Music Ltd.
Original: Dire Straits, auf dem Album "Brothers in Arms"
Vienna Symphonic Orchestra • Christian Kolonovits
08. Wind of Change 05:43
(Meine) Pri Music Corp.
Original: Scorpions, auf dem Album "Crazy World"
Vienna Symphonic Orchestra • Christian Kolonovits
09. Space Oddity 05:20
(Bowie) Westminster Music Lid.
Original: David Bowie, auf dem Album „David Bowie"
Vienna Symphonic Orchestra • Christian Kolonovits
10. November Rain 03:58
(Stradlin/McKagan/Rose/Sorum/Garrett) Black Frog Music Guns N' Roses Music/Warner/ Chappell Artemis
Original: Guns N' Roses, auf dem Album "Use Your Illusion"
David Garrett • The City Of Prague Philharmonic Orchestra
11. Comfortably Numb 05:25
(Gilmour/Waters/Coleman) Pink Floyd Music Publishers Ltd.
Original: Pink Floyd, auf dem Album "The Wall"
London Philharmonic Orchestra • Peter Scholes
12. Wherever I May Roam 06:10
(Hetfield/Ulrich/Toppinen)
Original: Metallica. auf dem Album "Black Album"
Apocalyptica
13 A Design for Life 04:27
(Bradfield/Moore/Jones) Sony Music Publishing Ltd.
Original: Manic Street Preachers, auf dem Album "Everything Mast Go"
The City Of Prague Philharmonic Orchestra • James Morgan
14. Sledgehammer 04:46
(Gabriel) Cliofine Ltd.
Original: Peter Gabriel, auf dem Album "So"
Vienna Symphonic Orchestra • Christian Kolonovits
15. Everything I Do (I Do It For You) 06:03
(Adams/Kamen/Lange) Badams Music/Almo Music Corp./Zomba Music/Miracle Creek Music/Zachary Creek Music
Original: Bryan Adams, auf dem Album "Waking up the Neighbours"
Vienna Symphonic Orchestra • Christian Kolonovits
Исполнители:Various

Перечень файлов (содержимое) контейнера в текстовом виде.

1. Содержимое CUE-файла.
2. Отчёт ЕАС.
3. Аудиофайл (.wv)
4. Сканы: буклет, диск, (полные) JPEG;Lossless (JP2)
5. Сканы front, CD, Back формат jpeg
6. Тех. данные

Лог создания рипа

Exact Audio Copy V1.0 beta 3 from 29. August 2011
EAC extraction logfile from 17. December 2012, 19:06
Various / Rock Meets Classic 2
Used drive : HL-DT-STDVD-RAM GH22LP20 Adapter: 4 ID: 1
Read mode : SecureUtilize accurate stream : YesDefeat audio cache : YesMake use of C2 pointers : No
Read offset correction : 102Overread into Lead-In and Lead-Out : NoFill up missing offset samples with silence : YesDelete leading and trailing silent blocks : NoNull samples used in CRC calculations : YesUsed interface : Installed external ASPI interface
Used output format : User Defined EncoderSelected bitrate : 896 kBit/sQuality : HighAdd ID3 tag : NoCommand line compressor : C:\Program Files (x86)\Exact Audio Copy\WAV Pack\wavpack.exeAdditional command line options : -hlmx2 %source% %dest%
TOC of the extracted CD
Track | Start | Length | Start sector | End sector --------------------------------------------------------- 1 | 0:00.00 | 6:10.01 | 0 | 27750 2 | 6:10.01 | 3:15.73 | 27751 | 42448 3 | 9:25.74 | 6:17.15 | 42449 | 70738 4 | 15:43.14 | 7:15.26 | 70739 | 103389 5 | 22:58.40 | 4:09.27 | 103390 | 122091 6 | 27:07.67 | 3:51.18 | 122092 | 139434 7 | 30:59.10 | 6:08.22 | 139435 | 167056 8 | 37:07.32 | 5:44.29 | 167057 | 192885 9 | 42:51.61 | 5:21.30 | 192886 | 216990 10 | 48:13.16 | 3:59.01 | 216991 | 234916 11 | 52:12.17 | 5:26.21 | 234917 | 259387 12 | 57:38.38 | 6:10.64 | 259388 | 287201 13 | 63:49.27 | 4:25.03 | 287202 | 307079 14 | 68:14.30 | 4:47.49 | 307080 | 328653 15 | 73:02.04 | 6:04.56 | 328654 | 356009
Range status and errors
Selected range
Filename X:\Releases_RAW\Various - Rock Meets Classic 2\Various - Rock Meets Classic 2.wav
Peak level 98.8 % Extraction speed 2.2 X Range quality 100.0 % Test CRC D8FD30AE Copy CRC D8FD30AE Copy OK
No errors occurred
AccurateRip summary
Track 1 not present in databaseTrack 2 not present in databaseTrack 3 not present in databaseTrack 4 not present in databaseTrack 5 not present in databaseTrack 6 not present in databaseTrack 7 not present in databaseTrack 8 not present in databaseTrack 9 not present in databaseTrack 10 not present in databaseTrack 11 not present in databaseTrack 12 not present in databaseTrack 13 not present in databaseTrack 14 not present in databaseTrack 15 not present in database
None of the tracks are present in the AccurateRip database
End of status report
---- CUETools DB Plugin V2.1.3
[CTDB TOCID: QEWp9I6IwW905rtI8avVWhZtqkY-] found, Submit result: QEWp9I6IwW905rtI8avVWhZtqkY- has been confirmed[336b35f4] (2/2) Accurately ripped
==== Log checksum 1669E82C2EA54922E5E13AEC40F9D78B4B56D84F08D82186B416148CD67CDFB2 ====

Содержание индексной карты (.CUE)

REM GENRE "Rock-Classic"REM DATE 2012REM DISCID E5128A0FREM COMMENT "ExactAudioCopy v1.0b3"CATALOG 0600753400579PERFORMER "Various"TITLE "Rock Meets Classic 2"FILE "Various - Rock Meets Classic 2.wv" WAVE TRACK 01 AUDIO TITLE "Bohemian Rhapsody" PERFORMER "The City Of Prague Philharmonic Orch. - James Morgan" ISRC GBUM70904680 INDEX 01 00:00:00 TRACK 02 AUDIO TITLE "Mission: Impossible" PERFORMER "David Garrett - The City Of Prague Philharmonic Orch." ISRC GBBBA1042780 INDEX 00 06:08:68 INDEX 01 06:10:01 TRACK 03 AUDIO TITLE "Riders On The Storm" PERFORMER "Nigel Kennedy - Prague Symphony Orch. - Peter Scholes" ISRC GBBBB9907401 INDEX 00 09:24:47 INDEX 01 09:25:74 TRACK 04 AUDIO TITLE "When The Levee Breaks" PERFORMER "London Philharmonic Orch. - Peter Scholes" ISRC NLA509712205 INDEX 00 15:41:73 INDEX 01 15:43:14 TRACK 05 AUDIO TITLE "A View To A Kill" PERFORMER "Vienna Symphonic Orch. - Christian Kolonovits" ISRC DEC978600021 INDEX 00 22:57:04 INDEX 01 22:58:40 TRACK 06 AUDIO TITLE "Conquest Of Paradise" PERFORMER "Vienna Symphonic Orch. - Christian Kolonovits" ISRC DEUM71202777 INDEX 00 27:06:02 INDEX 01 27:07:67 TRACK 07 AUDIO TITLE "Brothers In Arms" PERFORMER "Vienna Symphonic Orch. - Christian Kolonovits" ISRC DEC978600015 INDEX 00 30:57:13 INDEX 01 30:59:10 TRACK 08 AUDIO TITLE "Wind Of Change" PERFORMER "Vienna Symphonic Orch. - Christian Kolonovits" ISRC DEC979200052 INDEX 00 37:05:64 INDEX 01 37:07:32 TRACK 09 AUDIO TITLE "Space Oddity" PERFORMER "Vienna Symphonic Orch. - Christian Kolonovits" ISRC DEUM71202778 INDEX 00 42:50:16 INDEX 01 42:51:61 TRACK 10 AUDIO TITLE "November Rain" PERFORMER "David Garrett - The City Of Prague Philharmonic Orch." ISRC GBBBA1042840 INDEX 00 48:11:66 INDEX 01 48:13:16 TRACK 11 AUDIO TITLE "Comfortably Numb" PERFORMER "London Philharmonic Orch. - Peter Scholes" ISRC NLA509510604 INDEX 00 52:10:39 INDEX 01 52:12:17 TRACK 12 AUDIO TITLE "Wherever I May Roam" PERFORMER "Apocalyptica" ISRC FIZGN9600021 INDEX 00 57:36:42 INDEX 01 57:38:38 TRACK 13 AUDIO TITLE "A Design For Life" PERFORMER "The City Of Prague Philharmonic Orch. - James Morgan" ISRC GBUM70904682 INDEX 00 63:47:66 INDEX 01 63:49:27 TRACK 14 AUDIO TITLE "Sledgehammer" PERFORMER "Vienna Symphonic Orch. - Christian Kolonovits" ISRC DEC978800011 INDEX 00 68:12:69 INDEX 01 68:14:30 TRACK 15 AUDIO TITLE "Everything I Do (I Do It For You)" PERFORMER "Vienna Symphonic Orch. - Christian Kolonovits" ISRC DEC979200055 INDEX 00 73:00:38 INDEX 01 73:02:04

Лог проверки качества

Скриншот спектра частот

Доп. информация

1,13 2009 Decca
2,10 2010 Decca
3 2000 Decca
4 1997 Point Music
11 1995 Point Music
5,7 1986 Koch
6 1996 Koch
8,15 1992 Koch
9 1987 Koch
14 1988 Koch
12 1996 Zen Garden Oy



Показать сообщения:    

Текущее время: 03-Дек 16:45

Часовой пояс: UTC + 3


Вы не можете начинать темы
Вы не можете отвечать на сообщения
Вы не можете редактировать свои сообщения
Вы не можете удалять свои сообщения
Вы не можете голосовать в опросах
Вы не можете прикреплять файлы к сообщениям
Вы не можете скачивать файлы