(Classical, Instrumental) Rebecca Arons - Lifescapes: Starry Night: Classical Music For Sleep - 2012, FLAC (tracks+.cue) lossless


 

[Цитировать]

Rebecca Arons / Lifescapes: Starry Night: Classical Music For Sleep
Жанр: Classical, Instrumental
Страна-производитель диска: USA
Год издания диска: 2012
Издатель (лейбл): Lifescapes
Аудиокодек: FLAC
Тип рипа: tracks+.cue
Битрейт аудио: lossless
Продолжительность: 54:43
Источник: скачано с
сайт-источник/ник/другое: theqabalist (What CD)
Наличие сканов в содержимом раздачи: нет
Треклист:
01. Gymnopodie No. 3
02. Pastorale from Concerto Grosso Op. 6, No. 8
03. Reverie
04. The Swan
05. Andante from Divertissment Op. 61, No. 1
06. Traumerei
07. Nocturne
08. Prelude
09. Pastoral Symphony from ''Messiah''
10. Barcarolle
11. Aria From Xerxes
12. Allegretto from Divertissment Op. 61, No. 1
13. Gymnopodie No. 1

Лог создания рипа

Exact Audio Copy V1.0 beta 3 from 29. August 2011
EAC extraction logfile from 30. November 2012, 23:05
Rebecca Arons / Lifescapes: Starry Night: Classical Music for Sleep
Used drive : ASUS BW-12D1S-U Adapter: 0 ID: 0
Read mode : SecureUtilize accurate stream : YesDefeat audio cache : YesMake use of C2 pointers : No
Read offset correction : 667Overread into Lead-In and Lead-Out : NoFill up missing offset samples with silence : YesDelete leading and trailing silent blocks : NoNull samples used in CRC calculations : YesUsed interface : Native Win32 interface for Win NT & 2000Gap handling : Appended to previous track
Used output format : User Defined EncoderSelected bitrate : 1024 kBit/sQuality : HighAdd ID3 tag : NoCommand line compressor : C:\Program Files (x86)\Exact Audio Copy\FLAC\FLAC.EXEAdditional command line options : -8 -V -T "ARTIST=%artist%" -T "TITLE=%title%" -T "ALBUM=%albumtitle%" -T "DATE=%year%" -T "TRACKNUMBER=%tracknr%" -T "GENRE=%genre%" -T "PERFORMER=%albuminterpret%" -T "COMPOSER=%composer%" %haslyrics%--tag-from-file=LYRICS="%lyricsfile%"%haslyrics% -T "ALBUMARTIST=%albumartist%" -T "DISCNUMBER=%cdnumber%" -T "TOTALDISCS=%totalcds%" -T "TOTALTRACKS=%numtracks%" -T "COMMENT=%comment%" %source% -o %dest%
TOC of the extracted CD
Track | Start | Length | Start sector | End sector --------------------------------------------------------- 1 | 0:00.00 | 2:43.36 | 0 | 12260 2 | 2:43.36 | 5:37.47 | 12261 | 37582 3 | 8:21.08 | 6:59.51 | 37583 | 69058 4 | 15:20.59 | 3:46.38 | 69059 | 86046 5 | 19:07.22 | 5:09.09 | 86047 | 109230 6 | 24:16.31 | 3:16.51 | 109231 | 123981 7 | 27:33.07 | 5:11.72 | 123982 | 147378 8 | 32:45.04 | 2:29.70 | 147379 | 158623 9 | 35:14.74 | 4:25.13 | 158624 | 178511 10 | 39:40.12 | 3:32.55 | 178512 | 194466 11 | 43:12.67 | 3:16.19 | 194467 | 209185 12 | 46:29.11 | 4:48.23 | 209186 | 230808 13 | 51:17.34 | 3:26.35 | 230809 | 246293
Track 1
Filename C:\Rips\Rebecca Arons - [2012] Lifescapes_ Starry Night_ Classical Music For Sleep (FLAC)\01. Gymnopodie No. 3.wav
Pre-gap length 0:00:02.00
Peak level 77.1 % Extraction speed 4.0 X Track quality 100.0 % Test CRC 33C8B4DA Copy CRC 33C8B4DA Track not present in AccurateRip database Copy OK
Track 2
Filename C:\Rips\Rebecca Arons - [2012] Lifescapes_ Starry Night_ Classical Music For Sleep (FLAC)\02. Pastorale from Concerto Grosso Op. 6, No. 8.wav
Pre-gap length 0:00:04.00
Peak level 85.4 % Extraction speed 4.6 X Track quality 99.9 % Test CRC BCF56000 Copy CRC BCF56000 Track not present in AccurateRip database Copy OK
Track 3
Filename C:\Rips\Rebecca Arons - [2012] Lifescapes_ Starry Night_ Classical Music For Sleep (FLAC)\03. Reverie.wav
Pre-gap length 0:00:04.00
Peak level 74.6 % Extraction speed 5.7 X Track quality 100.0 % Test CRC 280A8B6E Copy CRC 280A8B6E Track not present in AccurateRip database Copy OK
Track 4
Filename C:\Rips\Rebecca Arons - [2012] Lifescapes_ Starry Night_ Classical Music For Sleep (FLAC)\04. The Swan.wav
Pre-gap length 0:00:04.00
Peak level 74.0 % Extraction speed 5.9 X Track quality 100.0 % Test CRC 66EA6287 Copy CRC 66EA6287 Track not present in AccurateRip database Copy OK
Track 5
Filename C:\Rips\Rebecca Arons - [2012] Lifescapes_ Starry Night_ Classical Music For Sleep (FLAC)\05. Andante from Divertissment Op. 61, No. 1.wav
Pre-gap length 0:00:04.00
Peak level 65.1 % Extraction speed 6.4 X Track quality 100.0 % Test CRC E6DED87A Copy CRC E6DED87A Track not present in AccurateRip database Copy OK
Track 6
Filename C:\Rips\Rebecca Arons - [2012] Lifescapes_ Starry Night_ Classical Music For Sleep (FLAC)\06. Traumerei.wav
Pre-gap length 0:00:04.00
Peak level 79.0 % Extraction speed 6.4 X Track quality 100.0 % Test CRC 51C80516 Copy CRC 51C80516 Track not present in AccurateRip database Copy OK
Track 7
Filename C:\Rips\Rebecca Arons - [2012] Lifescapes_ Starry Night_ Classical Music For Sleep (FLAC)\07. Nocturne.wav
Pre-gap length 0:00:04.00
Peak level 76.3 % Extraction speed 7.1 X Track quality 100.0 % Test CRC F7DB464F Copy CRC F7DB464F Track not present in AccurateRip database Copy OK
Track 8
Filename C:\Rips\Rebecca Arons - [2012] Lifescapes_ Starry Night_ Classical Music For Sleep (FLAC)\08. Prelude.wav
Pre-gap length 0:00:04.00
Peak level 61.1 % Extraction speed 6.6 X Track quality 100.0 % Test CRC 3757AD2F Copy CRC 3757AD2F Track not present in AccurateRip database Copy OK
Track 9
Filename C:\Rips\Rebecca Arons - [2012] Lifescapes_ Starry Night_ Classical Music For Sleep (FLAC)\09. Pastoral Symphony from ''Messiah''.wav
Pre-gap length 0:00:04.00
Peak level 77.2 % Extraction speed 7.3 X Track quality 100.0 % Test CRC 0E8226AD Copy CRC 0E8226AD Track not present in AccurateRip database Copy OK
Track 10
Filename C:\Rips\Rebecca Arons - [2012] Lifescapes_ Starry Night_ Classical Music For Sleep (FLAC)\10. Barcarolle.wav
Pre-gap length 0:00:04.00
Peak level 63.9 % Extraction speed 7.5 X Track quality 100.0 % Test CRC 8D6F185C Copy CRC 8D6F185C Track not present in AccurateRip database Copy OK
Track 11
Filename C:\Rips\Rebecca Arons - [2012] Lifescapes_ Starry Night_ Classical Music For Sleep (FLAC)\11. Aria From Xerxes.wav
Pre-gap length 0:00:04.00
Peak level 81.9 % Extraction speed 7.3 X Track quality 100.0 % Test CRC 8C2388A2 Copy CRC 8C2388A2 Track not present in AccurateRip database Copy OK
Track 12
Filename C:\Rips\Rebecca Arons - [2012] Lifescapes_ Starry Night_ Classical Music For Sleep (FLAC)\12. Allegretto from Divertissment Op. 61, No. 1.wav
Pre-gap length 0:00:04.00
Peak level 63.7 % Extraction speed 8.1 X Track quality 100.0 % Test CRC 6DBC5421 Copy CRC 6DBC5421 Track not present in AccurateRip database Copy OK
Track 13
Filename C:\Rips\Rebecca Arons - [2012] Lifescapes_ Starry Night_ Classical Music For Sleep (FLAC)\13. Gymnopodie No. 1.wav
Pre-gap length 0:00:05.00
Peak level 68.5 % Extraction speed 7.9 X Track quality 100.0 % Test CRC FA401C89 Copy CRC FA401C89 Track not present in AccurateRip database Copy OK
None of the tracks are present in the AccurateRip database
No errors occurred
End of status report
---- CUETools DB Plugin V2.1.3
[CTDB TOCID: lr40OtyJj9UICM8rZPDSUIUDosw-] disk not present in database, Submit result: lr40OtyJj9UICM8rZPDSUIUDosw- has been uploaded
==== Log checksum 84976A2E33FCA0411CCEDAFB06CCFAD0E58322BEC4023660F80C78FDBAE78585 ====

Содержание индексной карты (.CUE)

REM GENRE "New Age"REM DATE 2012REM DISCID BF0CD30DREM COMMENT "ExactAudioCopy v1.0b3"PERFORMER "Rerbecca Arons"TITLE "Lifescapes- Starry Night- Classical Music for Sleep"FILE "01. Gymnopodie No. 3.wav" WAVE TRACK 01 AUDIO FLAGS DCP INDEX 01 00:00:00 TRACK 02 AUDIO FLAGS DCP INDEX 00 02:39:36FILE "02. Pastorale from Concerto Grosso Op. 6, No. 8.wav" WAVE INDEX 01 00:00:00 TRACK 03 AUDIO FLAGS DCP INDEX 00 05:33:47FILE "03. Reverie.wav" WAVE INDEX 01 00:00:00 TRACK 04 AUDIO FLAGS DCP INDEX 00 06:55:51FILE "04. The Swan.wav" WAVE INDEX 01 00:00:00 TRACK 05 AUDIO FLAGS DCP INDEX 00 03:42:38FILE "05. Andante from Divertissment Op. 61, No. 1.wav" WAVE INDEX 01 00:00:00 TRACK 06 AUDIO FLAGS DCP INDEX 00 05:05:09FILE "06. Traumerei.wav" WAVE INDEX 01 00:00:00 TRACK 07 AUDIO FLAGS DCP INDEX 00 03:12:51FILE "07. Nocturne.wav" WAVE INDEX 01 00:00:00 TRACK 08 AUDIO FLAGS DCP INDEX 00 05:07:72FILE "08. Prelude.wav" WAVE INDEX 01 00:00:00 TRACK 09 AUDIO FLAGS DCP INDEX 00 02:25:70FILE "09. Pastoral Symphony from ''Messiah''.wav" WAVE INDEX 01 00:00:00 TRACK 10 AUDIO FLAGS DCP INDEX 00 04:21:13FILE "10. Barcarolle.wav" WAVE INDEX 01 00:00:00 TRACK 11 AUDIO FLAGS DCP INDEX 00 03:28:55FILE "11. Aria From Xerxes.wav" WAVE INDEX 01 00:00:00 TRACK 12 AUDIO FLAGS DCP INDEX 00 03:12:19FILE "12. Allegretto from Divertissment Op. 61, No. 1.wav" WAVE INDEX 01 00:00:00 TRACK 13 AUDIO FLAGS DCP INDEX 00 04:43:23FILE "13. Gymnopodie No. 1.wav" WAVE INDEX 01 00:00:00

Об альбоме (сборнике)

Вот и день пришел к концу ... теперь можно расслабиться и хорошо выспаться ночью с этой коллекцией классических успокаивающих избранных пьес. Благодаря фортепиано, флейте, классической гитаре, арфе и струнным инструментам.



Показать сообщения:    

Текущее время: 11-Дек 13:01

Часовой пояс: UTC + 3


Вы не можете начинать темы
Вы не можете отвечать на сообщения
Вы не можете редактировать свои сообщения
Вы не можете удалять свои сообщения
Вы не можете голосовать в опросах
Вы не можете прикреплять файлы к сообщениям
Вы не можете скачивать файлы