(Rock, Instrumental, Classical) Vitamin String Quartet - Embracing The Heaviness - Tribute To Stone Sour - 2006, FLAC (tracks+.cue) lossless


 

[Цитировать]

Vitamin String Quartet / Embracing The Heaviness - Tribute To Stone Sour
Жанр: Rock, Instrumental, Classical
Страна-производитель диска: США
Год издания диска: 2006
Страна: США
Аудиокодек: FLAC
Тип рипа: tracks+.cue
Битрейт аудио: lossless
Продолжительность: 00:33:39
Источник: вата
Наличие сканов в содержимом раздачи: нет
Треклист:
1. Get Inside (2:48)
2. Orchids (2:53)
3. Cold Reader (3:07)
4. Blotter (2:58)
5. Choose (3:09)
6. Monolith (3:11)
7. Inhale (3:16)
8. Bother (3:13)
9. Take A Number (3:09)
10. Idle Hands (2:59)
11. Tumult (2:56)

Лог создания рипа

Exact Audio Copy V0.99 prebeta 3 from 28. July 2007
EAC extraction logfile from 27. August 2008, 0:00
The String Quartet / Embracing The Heaviness - Tribute To Stone Sour
Used drive : ATAPI DVD A DH16A3L Adapter: 2 ID: 1
Read mode : SecureUtilize accurate stream : YesDefeat audio cache : YesMake use of C2 pointers : No
Read offset correction : 6Overread into Lead-In and Lead-Out : NoFill up missing offset samples with silence : YesDelete leading and trailing silent blocks : NoNull samples used in CRC calculations : YesUsed interface : Installed external ASPI interfaceGap handling : Appended to previous track
Used output format : User Defined EncoderSelected bitrate : 192 kBit/sQuality : HighAdd ID3 tag : NoCommand line compressor : C:\Program Files\Exact Audio Copy\Flac\flac.exeAdditional command line options : -8 -A tukey(0.25) -A gauss(0.1875) -b 4096 -V -T "artist=%a" -T "title=%t" -T "album=%g" -T "date=%y" -T "tracknumber=%n" -T "genre=%m" %s --sector-align
TOC of the extracted CD
Track | Start | Length | Start sector | End sector --------------------------------------------------------- 1 | 0:01.00 | 2:48.57 | 75 | 12731 2 | 2:49.57 | 2:53.20 | 12732 | 25726 3 | 5:43.02 | 3:07.56 | 25727 | 39807 4 | 8:50.58 | 2:58.07 | 39808 | 53164 5 | 11:48.65 | 3:09.01 | 53165 | 67340 6 | 14:57.66 | 3:11.36 | 67341 | 81701 7 | 18:09.27 | 3:16.42 | 81702 | 96443 8 | 21:25.69 | 3:13.47 | 96444 | 110965 9 | 24:39.41 | 3:09.41 | 110966 | 125181 10 | 27:49.07 | 2:59.53 | 125182 | 138659 11 | 30:48.60 | 2:56.29 | 138660 | 151888
Track 1
Filename C:\Users\Nate\Desktop\New Folder\01 - Get Inside.wav
Pre-gap length 0:00:03.00
Peak level 99.7 % Track quality 100.0 % Test CRC 033E9958 Copy CRC 033E9958 Track not present in AccurateRip database Copy OK
Track 2
Filename C:\Users\Nate\Desktop\New Folder\02 - Orchids.wav
Peak level 96.5 % Track quality 100.0 % Test CRC 27F16DC9 Copy CRC 27F16DC9 Track not present in AccurateRip database Copy OK
Track 3
Filename C:\Users\Nate\Desktop\New Folder\03 - Cold Reader.wav
Peak level 96.2 % Track quality 100.0 % Test CRC 35E082D2 Copy CRC 35E082D2 Track not present in AccurateRip database Copy OK
Track 4
Filename C:\Users\Nate\Desktop\New Folder\04 - Blotter.wav
Pre-gap length 0:00:00.30
Peak level 99.7 % Track quality 100.0 % Test CRC 25458A41 Copy CRC 25458A41 Track not present in AccurateRip database Copy OK
Track 5
Filename C:\Users\Nate\Desktop\New Folder\05 - Choose.wav
Pre-gap length 0:00:00.22
Peak level 99.7 % Track quality 100.0 % Test CRC D969B09B Copy CRC D969B09B Track not present in AccurateRip database Copy OK
Track 6
Filename C:\Users\Nate\Desktop\New Folder\06 - Monolith.wav
Pre-gap length 0:00:00.70
Peak level 99.7 % Track quality 100.0 % Test CRC 95D1A095 Copy CRC 95D1A095 Track not present in AccurateRip database Copy OK
Track 7
Filename C:\Users\Nate\Desktop\New Folder\07 - Inhale.wav
Peak level 99.7 % Track quality 99.9 % Test CRC 1CB01C77 Copy CRC 1CB01C77 Track not present in AccurateRip database Copy OK
Track 8
Filename C:\Users\Nate\Desktop\New Folder\08 - Bother.wav
Pre-gap length 0:00:00.54
Peak level 52.9 % Track quality 100.0 % Test CRC B0CED813 Copy CRC B0CED813 Track not present in AccurateRip database Copy OK
Track 9
Filename C:\Users\Nate\Desktop\New Folder\09 - Take A Number.wav
Pre-gap length 0:00:00.16
Peak level 94.9 % Track quality 100.0 % Test CRC C5C91CA5 Copy CRC C5C91CA5 Track not present in AccurateRip database Copy OK
Track 10
Filename C:\Users\Nate\Desktop\New Folder\10 - Idle Hands.wav
Pre-gap length 0:00:00.28
Peak level 83.9 % Track quality 100.0 % Test CRC 9CDB131F Copy CRC 9CDB131F Track not present in AccurateRip database Copy OK
Track 11
Filename C:\Users\Nate\Desktop\New Folder\11 - Tumult.wav
Peak level 92.1 % Track quality 100.0 % Test CRC DE0979A0 Copy CRC DE0979A0 Track not present in AccurateRip database Copy OK
None of the tracks are present in the AccurateRip database
No errors occurred
End of status report

Содержание индексной карты (.CUE)

REM GENRE InstrumentalREM DATE 2006REM DISCID 8C07E80BREM COMMENT "ExactAudioCopy v0.99pb3"PERFORMER "The String Quartet"TITLE "Embracing The Heaviness - Tribute To Stone Sour"FILE "01 - Get Inside.wav" WAVE TRACK 01 AUDIO TITLE "Get Inside" PERFORMER "The String Quartet" PREGAP 00:01:00 INDEX 01 00:00:00FILE "02 - Orchids.wav" WAVE TRACK 02 AUDIO TITLE "Orchids" PERFORMER "The String Quartet" INDEX 01 00:00:00FILE "03 - Cold Reader.wav" WAVE TRACK 03 AUDIO TITLE "Cold Reader" PERFORMER "The String Quartet" INDEX 01 00:00:00 TRACK 04 AUDIO TITLE "Blotter" PERFORMER "The String Quartet" INDEX 00 03:07:33FILE "04 - Blotter.wav" WAVE INDEX 01 00:00:00 TRACK 05 AUDIO TITLE "Choose" PERFORMER "The String Quartet" INDEX 00 02:57:65FILE "05 - Choose.wav" WAVE INDEX 01 00:00:00 TRACK 06 AUDIO TITLE "Monolith" PERFORMER "The String Quartet" INDEX 00 03:08:23FILE "06 - Monolith.wav" WAVE INDEX 01 00:00:00FILE "07 - Inhale.wav" WAVE TRACK 07 AUDIO TITLE "Inhale" PERFORMER "The String Quartet" INDEX 01 00:00:00 TRACK 08 AUDIO TITLE "Bother" PERFORMER "The String Quartet" INDEX 00 03:16:01FILE "08 - Bother.wav" WAVE INDEX 01 00:00:00 TRACK 09 AUDIO TITLE "Take A Number" PERFORMER "The String Quartet" INDEX 00 03:13:35FILE "09 - Take A Number.wav" WAVE INDEX 01 00:00:00 TRACK 10 AUDIO TITLE "Idle Hands" PERFORMER "The String Quartet" INDEX 00 03:09:20FILE "10 - Idle Hands.wav" WAVE INDEX 01 00:00:00FILE "11 - Tumult.wav" WAVE TRACK 11 AUDIO TITLE "Tumult" PERFORMER "The String Quartet" INDEX 01 00:00:00

Об исполнителе (группе)


The Vitamin String Quartet — музыкальный коллектив из Лос-Анджелеса, один из многочисленных проектов американской звукозаписывающей компании «Vitamin Records». Основатель Дэвид Хирл (David Haerle). Первым выпущенным альбомом стал The String Quartet Tribute to Led Zeppelin (1999). С тех пор было издано более 230 альбомов, представляющих собой трибьюты в честь самых различных исполнителей, как мэйнстрим-направления, так и независимых. В их числе Nirvana, Linkin Park, 30 Seconds to Mars, The Beatles, Depeche Mode, Radiohead, Pearl Jam, Tool, Muse, Rush, HIM, Dream Theater, Queens of the Stone Age, Bob Marley,Bullet For My Valentine, System of A Down, Bon Jovi, Iron Maiden, Massive Attack, Deftones, Simple Plan, Green Day и многие другие. Состав — The String Quartet : Jim Sitterly (violin 1) Brian Mc Dovey (violin 2) Johny Ace (viola) John Krovoza (cello).
-С приближающимся Новым Годом, друзья! И приятного прослушивания!



Показать сообщения:    

Текущее время: 11-Дек 11:07

Часовой пояс: UTC + 3


Вы не можете начинать темы
Вы не можете отвечать на сообщения
Вы не можете редактировать свои сообщения
Вы не можете удалять свои сообщения
Вы не можете голосовать в опросах
Вы не можете прикреплять файлы к сообщениям
Вы не можете скачивать файлы