(Classical Crossover) Alfie Boe - Storyteller - 2012, FLAC (tracks+.cue) lossless


 

[Цитировать]

Alfie Boe / Storyteller
Жанр: Classical Crossover
Страна-производитель диска: EU
Год издания диска: 2012
Издатель (лейбл): Decca
Номер по каталогу: BIEM/SDRM 3710614
Страна: Great Britan
Аудиокодек: FLAC
Тип рипа: tracks+.cue
Битрейт аудио: lossless
Продолжительность: 00:58:35
Источник: собственный рип
Наличие сканов в содержимом раздачи: нет
Треклист:
01. Bridge Over Troubled Water (04:38)
02. The Sun Ain't Gonna Shine Anymore (03:26)
03. I Can't Help Falling In Love With You (02:36)
04. It's Over (02:54)
05. If I Can Dream (03:10)
06. Angie (04:42)
07. Shine A Light (05:20)
08. Everybody's Talking (02:54)
09. It's Now Or Never (03:59)
10. Please Don't Let Me Be Misunderstood (04:26)
11. Angel From Montgomery (07:30)
12. Wayfaring Stranger (05:12)
13. Rank Strangers To Me (07:27)

Лог создания рипа

Exact Audio Copy V1.0 beta 3 from 29. August 2011
Отчёт EAC об извлечении, выполненном 23. декабря 2012, 19:49
Alfie Boe / Storyteller
Дисковод: Optiarc DVD RW AD-7280S Adapter: 2 ID: 0
Режим чтения : ДостоверностьИспользование точного потока : ДаОтключение кэша аудио : ДаИспользование указателей C2 : Нет
Коррекция смещения при чтении : 48Способность читать области Lead-in и Lead-out : НетЗаполнение пропущенных сэмплов тишиной : ДаУдаление блоков с тишиной в начале и конце : НетПри вычислениях CRC использовались нулевые сэмплы : ДаИнтерфейс : Встроенный Win32-интерфейс для Win NT/2000Обработка зазоров : Добавлено к следующему треку
Выходной формат : Пользовательский кодировщикВыбранный битрейт : 768 kBit/sКачество : ВысокийДобавление ID3-тега : НетУтилита сжатия : D:\EAC100b3\FLAC\FLAC.EXEДополнительные параметры : -V -8 -T "Genre=%genre%" -T "Artist=%artist%" -T "Title=%title%" -T "Album=%albumtitle%" -T "Date=%year%" -T "Tracknumber=%tracknr%" -T "Comment=%comment%" %source%
TOC извлечённого CD
Трек | Старт | Длительность | Начальный сектор | Конечный сектор --------------------------------------------------------------------- 1 | 0:00.00 | 4:40.59 | 0 | 21058 2 | 4:40.59 | 3:27.09 | 21059 | 36592 3 | 8:07.68 | 2:37.68 | 36593 | 48435 4 | 10:45.61 | 2:55.28 | 48436 | 61588 5 | 13:41.14 | 3:11.38 | 61589 | 75951 6 | 16:52.52 | 4:43.25 | 75952 | 97201 7 | 21:36.02 | 5:20.18 | 97202 | 121219 8 | 26:56.20 | 2:55.13 | 121220 | 134357 9 | 29:51.33 | 4:00.58 | 134358 | 152415 10 | 33:52.16 | 4:28.69 | 152416 | 172584 11 | 38:21.10 | 7:32.15 | 172585 | 206499 12 | 45:53.25 | 5:11.49 | 206500 | 229873 13 | 51:04.74 | 7:29.62 | 229874 | 263610
Трек 1
Имя файла D:\_Temp\Alfie Boe\01. Alfie Boe - Bridge Over Troubled Water.wav
Длина предзазора 0:00:02.00
Пиковый уровень 95.8 % Скорость извлечения 2.5 X Качество трека 100.0 % CRC теста E8378A01 CRC копии E8378A01 Копирование... OK
Трек 2
Имя файла D:\_Temp\Alfie Boe\02. Alfie Boe - The Sun Ain't Gonna Shine Anymore.wav
Пиковый уровень 98.2 % Скорость извлечения 2.3 X Качество трека 99.9 % CRC теста B9D68008 CRC копии B9D68008 Копирование... OK
Трек 3
Имя файла D:\_Temp\Alfie Boe\03. Alfie Boe - I Can't Help Falling In Love With You.wav
Пиковый уровень 94.3 % Скорость извлечения 2.7 X Качество трека 100.0 % CRC теста 1442EBC5 CRC копии 1442EBC5 Копирование... OK
Трек 4
Имя файла D:\_Temp\Alfie Boe\04. Alfie Boe - It's Over.wav
Пиковый уровень 100.0 % Скорость извлечения 2.9 X Качество трека 100.0 % CRC теста 1A228F00 CRC копии 1A228F00 Копирование... OK
Трек 5
Имя файла D:\_Temp\Alfie Boe\05. Alfie Boe - If I Can Dream.wav
Пиковый уровень 96.9 % Скорость извлечения 3.1 X Качество трека 100.0 % CRC теста C88FB5CF CRC копии C88FB5CF Копирование... OK
Трек 6
Имя файла D:\_Temp\Alfie Boe\06. Alfie Boe - Angie.wav
Пиковый уровень 95.4 % Скорость извлечения 3.5 X Качество трека 100.0 % CRC теста 1AB87A61 CRC копии 1AB87A61 Копирование... OK
Трек 7
Имя файла D:\_Temp\Alfie Boe\07. Alfie Boe - Shine A Light.wav
Пиковый уровень 96.5 % Скорость извлечения 3.8 X Качество трека 100.0 % CRC теста 0D399400 CRC копии 0D399400 Копирование... OK
Трек 8
Имя файла D:\_Temp\Alfie Boe\08. Alfie Boe - Everybody's Talking.wav
Пиковый уровень 94.6 % Скорость извлечения 3.6 X Качество трека 100.0 % CRC теста F8A9E469 CRC копии F8A9E469 Копирование... OK
Трек 9
Имя файла D:\_Temp\Alfie Boe\09. Alfie Boe - It's Now Or Never.wav
Пиковый уровень 94.7 % Скорость извлечения 4.0 X Качество трека 100.0 % CRC теста B2E7248C CRC копии B2E7248C Копирование... OK
Трек 10
Имя файла D:\_Temp\Alfie Boe\10. Alfie Boe - Please Don't Let Me Be Understood.wav
Пиковый уровень 95.2 % Скорость извлечения 3.8 X Качество трека 99.9 % CRC теста 729A8770 CRC копии 729A8770 Копирование... OK
Трек 11
Имя файла D:\_Temp\Alfie Boe\11. Alfie Boe - Angel From Montgomery.wav
Пиковый уровень 99.3 % Скорость извлечения 4.7 X Качество трека 100.0 % CRC теста F333627B CRC копии F333627B Копирование... OK
Трек 12
Имя файла D:\_Temp\Alfie Boe\12. Alfie Boe - Wayfaring Stranger.wav
Пиковый уровень 98.6 % Скорость извлечения 4.8 X Качество трека 100.0 % CRC теста C6CDB320 CRC копии C6CDB320 Копирование... OK
Трек 13
Имя файла D:\_Temp\Alfie Boe\13. Alfie Boe - Rank Strangers To Me.wav
Пиковый уровень 95.4 % Скорость извлечения 5.2 X Качество трека 100.0 % CRC теста F8522FB2 CRC копии F8522FB2 Копирование... OK
Ошибок не произошло
Конец отчёта
---- CUETools DB Plugin V2.1.3
[CTDB TOCID: PJkLtOYooHFkoY8q5jqcngM5OyM-] found, Submit result: already submitted[ca379b25] (4/4) Accurately ripped
==== Контрольная сумма отчёта 893AFC09C3E6662B44A343007D2C7F6E2BB922D901FD2F6B28648FC73D96815C ====

Содержание индексной карты (.CUE)

REM GENRE ClassicalREM DATE 2012REM DISCID B20DBA0DREM COMMENT "ExactAudioCopy v1.0b3"CATALOG 0602537106141PERFORMER "Alfie Boe"TITLE "Storyteller"FILE "01. Alfie Boe - Bridge Over Troubled Water.wav" WAVE TRACK 01 AUDIO TITLE "Bridge Over Troubled Water" PERFORMER "Alfie Boe" ISRC GBUM71205902 INDEX 01 00:00:00FILE "02. Alfie Boe - The Sun Ain't Gonna Shine Anymore.wav" WAVE TRACK 02 AUDIO TITLE "The Sun Ain't Gonna Shine Anymore" PERFORMER "Alfie Boe" ISRC GBUM71205906 INDEX 01 00:00:00FILE "03. Alfie Boe - I Can't Help Falling In Love With You.wav" WAVE TRACK 03 AUDIO TITLE "I Can't Help Falling In Love With You" PERFORMER "Alfie Boe" ISRC GBUM71205907 INDEX 01 00:00:00FILE "04. Alfie Boe - It's Over.wav" WAVE TRACK 04 AUDIO TITLE "It's Over" PERFORMER "Alfie Boe" ISRC GBUM71205897 INDEX 01 00:00:00FILE "05. Alfie Boe - If I Can Dream.wav" WAVE TRACK 05 AUDIO TITLE "If I Can Dream" PERFORMER "Alfie Boe" ISRC GBUM71205901 INDEX 01 00:00:00FILE "06. Alfie Boe - Angie.wav" WAVE TRACK 06 AUDIO TITLE "Angie" PERFORMER "Alfie Boe" ISRC GBUM71205898 INDEX 01 00:00:00FILE "07. Alfie Boe - Shine A Light.wav" WAVE TRACK 07 AUDIO TITLE "Shine A Light" PERFORMER "Alfie Boe" ISRC GBUM71205910 INDEX 01 00:00:00FILE "08. Alfie Boe - Everybody's Talking.wav" WAVE TRACK 08 AUDIO TITLE "Everybody's Talking " PERFORMER "Alfie Boe" ISRC GBUM71205896 INDEX 01 00:00:00FILE "09. Alfie Boe - It's Now Or Never.wav" WAVE TRACK 09 AUDIO TITLE "It's Now Or Never" PERFORMER "Alfie Boe" ISRC GBUM71205909 INDEX 01 00:00:00FILE "10. Alfie Boe - Please Don't Let Me Be Understood.wav" WAVE TRACK 10 AUDIO TITLE "Please Don't Let Me Be Understood" PERFORMER "Alfie Boe" ISRC GBUM71205908 INDEX 01 00:00:00FILE "11. Alfie Boe - Angel From Montgomery.wav" WAVE TRACK 11 AUDIO TITLE "Angel From Montgomery" PERFORMER "Alfie Boe" ISRC GBUM71205903 INDEX 01 00:00:00FILE "12. Alfie Boe - Wayfaring Stranger.wav" WAVE TRACK 12 AUDIO TITLE "Wayfaring Stranger" PERFORMER "Alfie Boe" ISRC GBUM71205905 INDEX 01 00:00:00FILE "13. Alfie Boe - Rank Strangers To Me.wav" WAVE TRACK 13 AUDIO TITLE "Rank Strangers To Me" PERFORMER "Alfie Boe" ISRC GBUM71205914 INDEX 01 00:00:00



Показать сообщения:    

Текущее время: 09-Дек 08:53

Часовой пояс: UTC + 3


Вы не можете начинать темы
Вы не можете отвечать на сообщения
Вы не можете редактировать свои сообщения
Вы не можете удалять свои сообщения
Вы не можете голосовать в опросах
Вы не можете прикреплять файлы к сообщениям
Вы не можете скачивать файлы