(Pop, Crossover) Il Divo - The Greatest Hits - 2012, FLAC (image+.cue) lossless


 

[Цитировать]

Il Divo / The Greatest Hits
Жанр: Pop, Crossover
Страна-производитель диска: Russia
Год издания диска: 2012
Издатель (лейбл): Sony Music
Номер по каталогу: 88765421572
Аудиокодек: FLAC
Тип рипа: image+.cue
Битрейт аудио: lossless
Продолжительность: 1:16:42.347 + 0:51:27.773
Источник: собственный рип
Наличие сканов в содержимом раздачи: да
Треклист:
CD1
01 My Heart Will Go On (Il Mio Cuore Va)
02 I Will Always Love You (Siempre Te Amare)
03 Can't Help Falling In Love
04 Alone (Solo)
05 Unchained Melody (Senza Catene)
06 Amazing Grace
07 Heroe
08 Unbreak My Heart (Regresa A Mi)
09 Somewhere
10 Passera
11 All By Myself (Solo Otra Vez)
12 Mama
13 Adagio
14 Without You
15 Caruso
16 Don't Cry For Me Argentina
17 My Way (A Mi Manera)
18 Time To Say Goodbye (Con Te Partiro)
CD2
01 Nights In White Satin (Notte Di Luce)
02 Nella Fantasia
03 Ave Maria
04 La Vida Sin Amor
05 Everytime I Look At You
06 The Power Of Love (La Fuerza Mayor)
07 You Raise Me Up (Por Ti Sere)
08 Crying (Llorando)
09 She
10 Hallelujah (Aleluya)
11 Pour Que Tu M'aimes Encore
12 The Impossible Dream (Live)
13 O Holy Night

Лог создания рипа

CD1

Exact Audio Copy V1.0 beta 3 from 29. August 2011
EAC extraction logfile from 9. December 2012, 22:05
Il Divo / The Greatest Hits
Used drive : Optiarc DVD RW AD-5200S Adapter: 5 ID: 0
Read mode : Secure
Utilize accurate stream : Yes
Defeat audio cache : Yes
Make use of C2 pointers : No
Read offset correction : 48
Overread into Lead-In and Lead-Out : No
Fill up missing offset samples with silence : Yes
Delete leading and trailing silent blocks : No
Null samples used in CRC calculations : Yes
Used interface : Native Win32 interface for Win NT & 2000
Used output format : Internal WAV Routines
Sample format : 44.100 Hz; 16 Bit; Stereo
TOC of the extracted CD
Track | Start | Length | Start sector | End sector
---------------------------------------------------------
1 | 0:00.00 | 4:19.52 | 0 | 19476
2 | 4:19.52 | 4:16.13 | 19477 | 38689
3 | 8:35.65 | 4:14.34 | 38690 | 57773
4 | 12:50.24 | 4:32.02 | 57774 | 78175
5 | 17:22.26 | 3:49.43 | 78176 | 95393
6 | 21:11.69 | 4:30.56 | 95394 | 115699
7 | 25:42.50 | 4:18.07 | 115700 | 135056
8 | 30:00.57 | 4:40.67 | 135057 | 156123
9 | 34:41.49 | 3:30.64 | 156124 | 171937
10 | 38:12.38 | 4:41.34 | 171938 | 193046
11 | 42:53.72 | 3:54.51 | 193047 | 210647
12 | 46:48.48 | 3:19.64 | 210648 | 225636
13 | 50:08.37 | 4:37.64 | 225637 | 246475
14 | 54:46.26 | 3:53.44 | 246476 | 263994
15 | 58:39.70 | 3:54.73 | 263995 | 281617
16 | 62:34.68 | 5:16.44 | 281618 | 305361
17 | 67:51.37 | 4:29.23 | 305362 | 325559
18 | 72:20.60 | 4:21.41 | 325560 | 345175
Range status and errors
Selected range
Filename R:\R_IL_DIVO\IL DIVO [2012] The Greatest Hits (wav)\CD1\Il Divo - The Greatest Hits CD1.wav
Peak level 98.9 %
Extraction speed 4.4 X
Range quality 100.0 %
Copy CRC 0CF329DB
Copy OK
No errors occurred
AccurateRip summary
Track 1 not present in database
Track 2 not present in database
Track 3 not present in database
Track 4 not present in database
Track 5 not present in database
Track 6 not present in database
Track 7 not present in database
Track 8 not present in database
Track 9 not present in database
Track 10 not present in database
Track 11 not present in database
Track 12 not present in database
Track 13 not present in database
Track 14 not present in database
Track 15 not present in database
Track 16 not present in database
Track 17 not present in database
Track 18 not present in database
None of the tracks are present in the AccurateRip database
End of status report
---- CUETools DB Plugin V2.1.3
[CTDB TOCID: AbzYJ5sOvTFdKS0XW9ybkrykPwY-] found, Submit result: AbzYJ5sOvTFdKS0XW9ybkrykPwY- has been confirmed
[2dd690d8] (1/1) Accurately ripped
==== Log checksum A6E26321AE326BAA113CE7C9602E382756B681CCB9328D545F9C373294603E33 ====

CD2

Exact Audio Copy V1.0 beta 3 from 29. August 2011
EAC extraction logfile from 9. December 2012, 22:22
Il Divo / The Greatest Hits (Disc 2)
Used drive : Optiarc DVD RW AD-5200S Adapter: 5 ID: 0
Read mode : Secure
Utilize accurate stream : Yes
Defeat audio cache : Yes
Make use of C2 pointers : No
Read offset correction : 48
Overread into Lead-In and Lead-Out : No
Fill up missing offset samples with silence : Yes
Delete leading and trailing silent blocks : No
Null samples used in CRC calculations : Yes
Used interface : Native Win32 interface for Win NT & 2000
Used output format : Internal WAV Routines
Sample format : 44.100 Hz; 16 Bit; Stereo
TOC of the extracted CD
Track | Start | Length | Start sector | End sector
---------------------------------------------------------
1 | 0:00.00 | 4:19.25 | 0 | 19449
2 | 4:19.25 | 4:27.31 | 19450 | 39505
3 | 8:46.56 | 4:53.09 | 39506 | 61489
4 | 13:39.65 | 3:39.62 | 61490 | 77976
5 | 17:19.52 | 3:29.17 | 77977 | 93668
6 | 20:48.69 | 4:59.49 | 93669 | 116142
7 | 25:48.43 | 4:02.29 | 116143 | 134321
8 | 29:50.72 | 3:25.37 | 134322 | 149733
9 | 33:16.34 | 2:50.25 | 149734 | 162508
10 | 36:06.59 | 3:19.64 | 162509 | 177497
11 | 39:26.48 | 3:54.45 | 177498 | 195092
12 | 43:21.18 | 4:06.08 | 195093 | 213550
13 | 47:27.26 | 4:00.32 | 213551 | 231582
Range status and errors
Selected range
Filename R:\R_IL_DIVO\IL DIVO [2012] The Greatest Hits (wav)\CD2\Il Divo - The Greatest Hits (Disc 2).wav
Peak level 100.0 %
Extraction speed 3.9 X
Range quality 100.0 %
Copy CRC 849FA75D
Copy OK
No errors occurred
AccurateRip summary
Track 1 not present in database
Track 2 not present in database
Track 3 not present in database
Track 4 not present in database
Track 5 not present in database
Track 6 not present in database
Track 7 not present in database
Track 8 not present in database
Track 9 not present in database
Track 10 not present in database
Track 11 not present in database
Track 12 not present in database
Track 13 not present in database
None of the tracks are present in the AccurateRip database
End of status report
---- CUETools DB Plugin V2.1.3
[CTDB TOCID: X.SHtojU6zpOQPtkojKAGEFlprY-] found, Submit result: X.SHtojU6zpOQPtkojKAGEFlprY- has been uploaded
[9303fd5a] (1/1) Differs in 25386 samples @00:40:42-00:40:64
You can use CUETools to repair this rip.
==== Log checksum 0815EBD4E1A58F56AFDF04BDE82F3FE1199D2FE3AC7ACCF5AD25D80DD825D895 ====



Показать сообщения:    

Текущее время: 09-Дек 06:57

Часовой пояс: UTC + 3


Вы не можете начинать темы
Вы не можете отвечать на сообщения
Вы не можете редактировать свои сообщения
Вы не можете удалять свои сообщения
Вы не можете голосовать в опросах
Вы не можете прикреплять файлы к сообщениям
Вы не можете скачивать файлы