(Classical) V/A - Morning Relax Time Music (2CD) - 1988;1989, APE (image+.cue) lossless


 

[Цитировать]

V/A / Morning Relax Time Music (2CD)
Жанр: Classical
Страна-производитель диска: Germany
Год издания диска: 1988;1989
Издатель (лейбл): ?
Номер по каталогу: TA-201A(B)
Страна: International
Аудиокодек: APE
Тип рипа: image+.cue
Битрейт аудио: lossless
Продолжительность: 01:15:43; 00:51:45
Источник: собственный рип
Наличие сканов в содержимом раздачи: да
Треклист:
CD1. The Sampler
01. Ludwig van Beethoven / Symphonie Nr. 5 - Allegro con brio
02. Wolfgang Amadeus Mozart / Symphonie Nr. 40 - Molto Allegro
03. Antonio Vivaldi / Die vier Jahreszeiten (The Four Seasons) - Der Frьhling (The Spring) - Allegro
04. Franz Liszt / Liebestraum
05. Johannes Brahms / Ungarischer Tanz Nr. 5 g-Moll (Hungarian Dance No. 5 in g Minor) - Allegro
06. Frederic Chopin / Walzer Nr. 6 op. 64 - Minutenwalzer (Minute Waltz)
07. Giuseppe Verdi / Aida - Triumphmarsch
08. L. v. Beethoven / Mondscheinsonate - Adagio sostenuto
09. W. A. Mozart / Symphonie Nr. 41 (Jupiter-Symphonie) - Menuetto
10. Franz Schubert / Forellenquintett (The Trout) - Thema con variazioni
11. Felix Mendelssohn-Bartholdy / Ein Sommernachtstraum (A Midsummer Night's Dream) - Hochzeitsmarsch(Wed)
12. Петр Чайковский / NuЯknacker-Suite (The Nutcracker) - Blumenwalzer (Flower Waltz)
13. Иоганн Себастьян Бах / Brandenburgisches Konzert Nr. 3 - Allegro moderato
14. Жорж Бизе / Carmen - Les Toreadors
15. Джузеппе Верди / Nabucco - Gefangenschaftschor (The Prisoners' Choir)
CD2. Symphonic Rock Orchestra (Simon Gale) - Classics in Rock
01. J.Strauss
02. J.S.Bach; Tschaikowsky; Beethoven; Grieg
03. Tschaikowsky
04. Smetana; Rimsky-Korssakoff; Verdi
05. Mozart
06. Chopin; Fibich; Gounod
07. Николай Римский-Корсаков; Иоганесс Брамс;

Лог создания рипа

CD1:Exact Audio Copy V0.99 prebeta 5 from 4. May 2009
Отчёт EAC об извлечении, выполненном 20. октября 2012, 13:18
Various Artists / The Sampler
Дисковод: Optiarc DVD RW AD-7200S Adapter: 3 ID: 0
Режим чтения : ДостоверностьИспользование точного потока : ДаОтключение кэша аудио : ДаИспользование указателей C2 : Нет
Коррекция смещения при чтении : 48Способность читать области Lead-in и Lead-out : НетЗаполнение пропущенных сэмплов тишиной : ДаУдаление блоков с тишиной в начале и конце : НетПри вычислениях CRC использовались нулевые сэмплы : ДаИнтерфейс : Встроенный Win32-интерфейс для Win NT/2000
Выходной формат : Внутренние WAV-операцииФормат сэмплов : 44.100 Гц; 16 бит; стерео
TOC извлечённого CD
Трек | Старт | Длительность | Начальный сектор | Конечный сектор --------------------------------------------------------------------- 1 | 0:00.00 | 7:25.00 | 0 | 33374 2 | 7:25.00 | 6:41.00 | 33375 | 63449 3 | 14:06.00 | 3:34.00 | 63450 | 79499 4 | 17:40.00 | 4:30.00 | 79500 | 99749 5 | 22:10.00 | 2:25.00 | 99750 | 110624 6 | 24:35.00 | 1:53.00 | 110625 | 119099 7 | 26:28.00 | 5:08.00 | 119100 | 142199 8 | 31:36.00 | 6:06.00 | 142200 | 169649 9 | 37:42.00 | 4:53.00 | 169650 | 191624 10 | 42:35.00 | 7:38.00 | 191625 | 225974 11 | 50:13.00 | 4:52.00 | 225975 | 247874 12 | 55:05.00 | 7:09.00 | 247875 | 280049 13 | 62:14.00 | 6:41.00 | 280050 | 310124 14 | 68:55.00 | 2:18.00 | 310125 | 320474 15 | 71:13.00 | 4:30.05 | 320475 | 340729
Характеристики диапазона извлечения и сообщения об ошибках
Выбранный диапазон
Имя файла C:\Users\Bishop\Desktop\CD1\Various Artists - The Sampler.wav
Пиковый уровень 100.0 % Качество диапазона 99.9 % CRC теста 9D841D18 CRC копии 226D6EFB Копирование... OK
Ошибок не произошло
AccurateRip: сводка
Трек 1 точность не определена (достоверность 7) [8DC06720], AccurateRip вернул [F80A4985]Трек 2 точное извлечение (доверие 7) [24077281]Трек 3 точное извлечение (доверие 8) [DEF4A8AE]Трек 4 точное извлечение (доверие 8) [7333BC31]Трек 5 точное извлечение (доверие 7) [9F7532B9]Трек 6 точное извлечение (доверие 6) [04E9ACE4]Трек 7 точное извлечение (доверие 6) [53EAB2B9]Трек 8 точное извлечение (доверие 7) [012E67F0]Трек 9 точное извлечение (доверие 6) [91E624A2]Трек 10 точное извлечение (доверие 6) [BAF2ED0D]Трек 11 точное извлечение (доверие 7) [C115B792]Трек 12 точное извлечение (доверие 7) [4FBFC555]Трек 13 точное извлечение (доверие 6) [3F416E0C]Трек 14 точное извлечение (доверие 7) [17F3BC76]Трек 15 точное извлечение (доверие 5) [6C003BA2]
14 трек(и) скопированы точно 1 трек(и) не удалось проверить на точность
Некоторые треки не прошли проверку на точность
Конец отчёта
CD2:Exact Audio Copy V0.99 prebeta 5 from 4. May 2009
Отчёт EAC об извлечении, выполненном 20. октября 2012, 13:52
Symphonic Rock Orchestra (Simon Gale) / Classics in Rock (Volume 2)
Дисковод: Optiarc DVD RW AD-7200S Adapter: 3 ID: 0
Режим чтения : ДостоверностьИспользование точного потока : ДаОтключение кэша аудио : ДаИспользование указателей C2 : Нет
Коррекция смещения при чтении : 48Способность читать области Lead-in и Lead-out : НетЗаполнение пропущенных сэмплов тишиной : ДаУдаление блоков с тишиной в начале и конце : НетПри вычислениях CRC использовались нулевые сэмплы : ДаИнтерфейс : Встроенный Win32-интерфейс для Win NT/2000
Выходной формат : Внутренние WAV-операцииФормат сэмплов : 44.100 Гц; 16 бит; стерео
TOC извлечённого CD
Трек | Старт | Длительность | Начальный сектор | Конечный сектор --------------------------------------------------------------------- 1 | 0:00.00 | 8:22.00 | 0 | 37649 2 | 8:22.00 | 8:19.00 | 37650 | 75074 3 | 16:41.00 | 7:23.00 | 75075 | 108299 4 | 24:04.00 | 7:28.00 | 108300 | 141899 5 | 31:32.00 | 5:23.00 | 141900 | 166124 6 | 36:55.00 | 8:22.00 | 166125 | 203774 7 | 45:17.00 | 6:04.45 | 203775 | 231119
Характеристики диапазона извлечения и сообщения об ошибках
Выбранный диапазон
Имя файла C:\Users\Bishop\Desktop\CD2\Symphonic Rock Orchestra (Simon Gale) - Classics in Rock (Volume 2).wav
Пиковый уровень 91.2 % Качество диапазона 100.0 % CRC теста FDBD1B41 CRC копии FDBD1B41 Копирование... OK
Ошибок не произошло
AccurateRip: сводка
Трек 1 точное извлечение (доверие 3) [D8EE0C05]Трек 2 точное извлечение (доверие 3) [4B122ED1]Трек 3 точное извлечение (доверие 3) [CA2646B2]Трек 4 точное извлечение (доверие 3) [E440B2AC]Трек 5 точное извлечение (доверие 3) [34F3B687]Трек 6 точное извлечение (доверие 3) [DC38626F]Трек 7 точное извлечение (доверие 3) [B6F73028]
Все треки извлечены точно
Конец отчёта

Содержание индексной карты (.CUE)

CD1:REM GENRE ClassicalREM DATE 1989REM DISCID DE11BF0FREM COMMENT "ExactAudioCopy v0.99pb5"PERFORMER "Various Artists"TITLE "The Sampler"FILE "Various Artists - The Sampler.ape" WAVE TRACK 01 AUDIO TITLE "Symphonie Nr. 5 - Allegro con brio" PERFORMER "L. v. Beethoven" INDEX 01 00:00:00 TRACK 02 AUDIO TITLE "Symphonie Nr. 40 - Molto Allegro" PERFORMER "W. A. Mozart" INDEX 00 07:19:17 INDEX 01 07:25:00 TRACK 03 AUDIO TITLE "Die vier Jahreszeiten (The Four Seasons) - Der Frьhling (The Spring) - Allegro" PERFORMER "A. Vivaldi" INDEX 00 14:01:20 INDEX 01 14:06:00 TRACK 04 AUDIO TITLE "Liebestraum" PERFORMER "F. Liszt" INDEX 00 17:35:35 INDEX 01 17:40:00 TRACK 05 AUDIO TITLE "Ungarischer Tanz Nr. 5 g-Moll (Hungarian Dance No. 5 in g Minor) - Allegro" PERFORMER "J. Brahms" INDEX 00 22:05:00 INDEX 01 22:10:00 TRACK 06 AUDIO TITLE "Walzer Nr. 6 op. 64 - Minutenwalzer (Minute Waltz)" PERFORMER "F. Chopin" INDEX 00 24:30:12 INDEX 01 24:35:00 TRACK 07 AUDIO TITLE "Aida - Triumphmarsch" PERFORMER "G. Verdi" INDEX 00 26:22:45 INDEX 01 26:28:00 TRACK 08 AUDIO TITLE "Mondscheinsonate - Adagio sostenuto" PERFORMER "L. v. Beethoven" INDEX 00 31:31:42 INDEX 01 31:36:00 TRACK 09 AUDIO TITLE "Symphonie Nr. 41 (Jupiter-Symphonie) - Menuetto" PERFORMER "W. A. Mozart" INDEX 00 37:37:12 INDEX 01 37:42:00 TRACK 10 AUDIO TITLE "Forellenquintett (The Trout) - Thema con variazioni" PERFORMER "F. Schubert" INDEX 00 42:30:02 INDEX 01 42:35:00 TRACK 11 AUDIO TITLE "Ein Sommernachtstraum (A Midsummer Night's Dream) - Hochzeitsmarsch (Wed" PERFORMER "F. Mendelssohn-Bartholdy" INDEX 00 50:08:00 INDEX 01 50:13:00 TRACK 12 AUDIO TITLE "NuЯknacker-Suite (The Nutcracker) - Blumenwalzer (Flower Waltz)" PERFORMER "P. I. Tschaikowsky" INDEX 00 55:00:22 INDEX 01 55:05:00 TRACK 13 AUDIO TITLE "Brandenburgisches Konzert Nr. 3 - Allegro moderato" PERFORMER "J. S. Bach" INDEX 00 62:08:52 INDEX 01 62:14:00 TRACK 14 AUDIO TITLE "Carmen - Les Toreadors" PERFORMER "G. Bizet" INDEX 00 68:50:32 INDEX 01 68:55:00 TRACK 15 AUDIO TITLE "Nabucco - Gefangenschaftschor (The Prisoners' Choir)" PERFORMER "G. Verdi" INDEX 00 71:08:52 INDEX 01 71:13:00 CD2:EM GENRE "Classic Rock"REM DATE 1988REM DISCID 530C0907REM COMMENT "ExactAudioCopy v0.99pb5"PERFORMER "Symphonic Rock Orchestra (Simon Gale)"TITLE "Classics in Rock (Volume 2)"FILE "Symphonic Rock Orchestra (Simon Gale) - Classics in Rock (Volume 2).ape" WAVE TRACK 01 AUDIO TITLE "J.Strauss" PERFORMER "Symphonic Rock Orchestra (Simon Gale)" FLAGS PRE INDEX 01 00:00:00 TRACK 02 AUDIO TITLE "J.S.Bach; Tschaikowsky; Beethoven; Grieg" PERFORMER "Symphonic Rock Orchestra (Simon Gale)" FLAGS PRE INDEX 00 08:14:32 INDEX 01 08:22:00 TRACK 03 AUDIO TITLE "Tschaikowsky" PERFORMER "Symphonic Rock Orchestra (Simon Gale)" FLAGS PRE INDEX 00 16:32:72 INDEX 01 16:41:00 TRACK 04 AUDIO TITLE "Smetana; Rimsky-Korssakoff; Verdi" PERFORMER "Symphonic Rock Orchestra (Simon Gale)" FLAGS PRE INDEX 00 23:56:10 INDEX 01 24:04:00 TRACK 05 AUDIO TITLE "Mozart" PERFORMER "Symphonic Rock Orchestra (Simon Gale)" FLAGS PRE INDEX 00 31:23:70 INDEX 01 31:32:00 TRACK 06 AUDIO TITLE "Chopin; Fibich; Gounod" PERFORMER "Symphonic Rock Orchestra (Simon Gale)" FLAGS PRE INDEX 00 36:47:50 INDEX 01 36:55:00 TRACK 07 AUDIO TITLE "Rimsky-Korssakoff; Brahms; Suppи; Bizet" PERFORMER "Symphonic Rock Orchestra (Simon Gale)" FLAGS PRE INDEX 00 45:08:70 INDEX 01 45:17:00

[Цитировать]

Помогите пожалуйста с раздачей :(


Показать сообщения:    

Текущее время: 10-Дек 19:43

Часовой пояс: UTC + 3


Вы не можете начинать темы
Вы не можете отвечать на сообщения
Вы не можете редактировать свои сообщения
Вы не можете удалять свои сообщения
Вы не можете голосовать в опросах
Вы не можете прикреплять файлы к сообщениям
Вы не можете скачивать файлы