(classical) VA - Pavarotti & Friends - for Guatemala and Kosovo - 1999, FLAC (image+.cue) lossless


 

[Цитировать]

Pavarotti & Friends / for Guatemala and Kosovo
Жанр: classical
Страна-производитель диска: CD is made in Germany
Год издания диска: 1999
Издатель (лейбл): The Decca record Company Limited, London
Номер по каталогу: 466 600-2
Страна: Italia
Аудиокодек: FLAC
Тип рипа: image+.cue
Битрейт аудио: lossless
Продолжительность: 1:16:43.47
Источник: собственный рип
сайт-источник/ник/другое: c оригинального диска
Наличие сканов в содержимом раздачи: нет
Треклист:
01. Mariah Carey & Luciano Pavarotti / Hero 04:40
02. Ricky Martin & Luciano Pavarotti / Mamma 02:58
03. Gloria Estefan / Mi Tierra 04:52
04. Boyzone & Luciano Pavarotti / No Matter What 04:51
05. B.B. King / Let The Good Times Roll 03:41
06. Lionel Richie & Luciano Pavarotti / The Magic Of Love 04:42
07. Gjannj MoranDJ & Luciano Pavarotti / Maria, Mari 04:21
08. B.B. King & Luciano Pavarotti / The Thrill Is Gone 04:44
09. Mariah Carey / My All 05:21
10. Zucchero & B.B. King / Hey Man 04:45
11. Gloria Estefan & Luciano Pavarotti / Fiorin Fiorello 02:12
12. Joe Coker / You Can Leave Your Hat On 04:34
13. Renato Zero & Luciano Pavarotti / Il Cielo 04:18
14. Boyzone / You Need Me 03:35
15. Laura Pausini & Luciano Pavarotti / Tu Che M' Hai Preso Il Cor 03:37
16. Joe Coker, Luciano Pavarotti & Alex Britti / You Are So Beautiful 02:49
17. Lionel Richie / All Night Long 04:54
18. All Artists / We Are The World 05:51

Лог создания рипа

Exact Audio Copy V1.0 beta 3 from 29. August 2011
Отчёт EAC об извлечении, выполненном 15. октября 2012, 20:32
Various / Pavarotti & Friends - For the children of Guatemala and Kosovo
Дисковод: TSSTcorpCDDVDW SH-222AL Adapter: 3 ID: 0
Режим чтения : ДостоверностьИспользование точного потока : ДаОтключение кэша аудио : ДаИспользование указателей C2 : Нет
Коррекция смещения при чтении : 6Способность читать области Lead-in и Lead-out : НетЗаполнение пропущенных сэмплов тишиной : ДаУдаление блоков с тишиной в начале и конце : НетПри вычислениях CRC использовались нулевые сэмплы : ДаИнтерфейс : Встроенный Win32-интерфейс для Win NT/2000
Выходной формат : Внутренние WAV-операцииФормат сэмплов : 44.100 Гц; 16 бит; стерео
TOC извлечённого CD
Трек | Старт | Длительность | Начальный сектор | Конечный сектор --------------------------------------------------------------------- 1 | 0:00.00 | 4:40.06 | 0 | 21005 2 | 4:40.06 | 2:57.46 | 21006 | 34326 3 | 7:37.52 | 4:52.03 | 34327 | 56229 4 | 12:29.55 | 4:51.02 | 56230 | 78056 5 | 17:20.57 | 3:40.40 | 78057 | 94596 6 | 21:01.22 | 4:41.63 | 94597 | 115734 7 | 25:43.10 | 4:20.42 | 115735 | 135276 8 | 30:03.52 | 4:44.13 | 135277 | 156589 9 | 34:47.65 | 5:20.50 | 156590 | 180639 10 | 40:08.40 | 4:45.10 | 180640 | 202024 11 | 44:53.50 | 2:12.37 | 202025 | 211961 12 | 47:06.12 | 4:34.25 | 211962 | 232536 13 | 51:40.37 | 4:17.53 | 232537 | 251864 14 | 55:58.15 | 3:34.52 | 251865 | 267966 15 | 59:32.67 | 3:37.35 | 267967 | 284276 16 | 63:10.27 | 2:48.45 | 284277 | 296921 17 | 65:58.72 | 4:53.60 | 296922 | 318956 18 | 70:52.57 | 5:50.65 | 318957 | 345271
Характеристики диапазона извлечения и сообщения об ошибках
Выбранный диапазон
Имя файла E:\Music\War Child\Various - Pavarotti & Friends - For the children of Guatemala and Kosovo.wav
Пиковый уровень 99.8 % Скорость извлечения 8.6 X Качество диапазона 100.0 % CRC теста 4DC0DE2C CRC копии 4DC0DE2C Копирование... OK
Ошибок не произошло
AccurateRip: сводка
Трек 1 точность не определена (достоверность 15) [467C2A09], AccurateRip вернул [4EAF6701] (AR v2)Трек 2 точность не определена (достоверность 15) [5D985247], AccurateRip вернул [30D7A514] (AR v2)Трек 3 точность не определена (достоверность 15) [AEBCD224], AccurateRip вернул [E8B87F26] (AR v2)Трек 4 точность не определена (достоверность 14) [157799A7], AccurateRip вернул [8FEEF2BD] (AR v2)Трек 5 точность не определена (достоверность 15) [222AC0B5], AccurateRip вернул [734A030A] (AR v2)Трек 6 точность не определена (достоверность 15) [993A9695], AccurateRip вернул [4F88C6CC] (AR v2)Трек 7 точность не определена (достоверность 14) [E4CC9066], AccurateRip вернул [EA7C2A78] (AR v2)Трек 8 точность не определена (достоверность 15) [A513E570], AccurateRip вернул [E2741B14] (AR v2)Трек 9 точность не определена (достоверность 14) [7205DA40], AccurateRip вернул [B5F27FDC] (AR v2)Трек 10 точность не определена (достоверность 15) [9FFEDE18], AccurateRip вернул [4210D224] (AR v2)Трек 11 точность не определена (достоверность 15) [6061664A], AccurateRip вернул [9F25E91F] (AR v2)Трек 12 точность не определена (достоверность 15) [8F2C17B8], AccurateRip вернул [D16CEE04] (AR v2)Трек 13 точность не определена (достоверность 15) [6A6AADB6], AccurateRip вернул [FBAB0834] (AR v2)Трек 14 точность не определена (достоверность 15) [2536322C], AccurateRip вернул [1CD95D6E] (AR v2)Трек 15 точность не определена (достоверность 15) [2EE6610C], AccurateRip вернул [8FDA4365] (AR v2)Трек 16 точность не определена (достоверность 15) [E1D28E8D], AccurateRip вернул [1BEE1957] (AR v2)Трек 17 точность не определена (достоверность 15) [36711C26], AccurateRip вернул [33F4B267] (AR v2)Трек 18 точность не определена (достоверность 15) [2D3B5F95], AccurateRip вернул [387B6C06] (AR v2)
Ни один трек не прошёл проверки на точностьВ вашей базе может быть иной вариант штамповки диска
Конец отчёта

Содержание индексной карты (.CUE)

REM GENRE "Classic Rock"REM DATE 1999REM DISCID FC11FB12REM COMMENT "ExactAudioCopy v1.0b3"CATALOG 0028946660027PERFORMER "Various"TITLE "Pavarotti & Friends - For the children of Guatemala and Kosovo"FILE "Various - Pavarotti & Friends - For the children of Guatemala and Kosovo.flac" WAVE TRACK 01 AUDIO TITLE "Hero" PERFORMER "Mariah Carey & Luciano Pavarotti" ISRC GBF079910610 INDEX 01 00:00:00 TRACK 02 AUDIO TITLE "Mamma" PERFORMER "Ricky Martin & Luciano Pavarotti" ISRC GBF079910620 INDEX 01 04:40:06 TRACK 03 AUDIO TITLE "Mi Terra" PERFORMER "Gloria Estefan" ISRC GBF079910630 INDEX 01 07:37:52 TRACK 04 AUDIO TITLE "No Matter What" PERFORMER "Boyzone & Luciano Pavarotti" ISRC GBF079910640 INDEX 01 12:29:55 TRACK 05 AUDIO TITLE "Let The Good Times Roll" PERFORMER "B.B. King" ISRC GBF079910650 INDEX 01 17:20:57 TRACK 06 AUDIO TITLE "The Magic Of Love" PERFORMER "Lionel Richie & Luciano Pavarotti" ISRC GBF079910660 INDEX 01 21:01:22 TRACK 07 AUDIO TITLE "Maria, Mari" PERFORMER "Gjannj MoranDJ & Luciano Pavarotti" ISRC GBF079910670 INDEX 01 25:43:10 TRACK 08 AUDIO TITLE "The Thrill Is Gone" PERFORMER "B.B. King & Luciano Pavarotti" ISRC GBF079910680 INDEX 01 30:03:52 TRACK 09 AUDIO TITLE "My All" PERFORMER "Mariah Carey" ISRC GBF079910690 INDEX 01 34:47:65 TRACK 10 AUDIO TITLE "Hey Man" PERFORMER "Zucchero & B.B. King" ISRC GBF079910700 INDEX 01 40:08:40 TRACK 11 AUDIO TITLE "Fiorin Fiorello" PERFORMER "Gloria Estefan & Luciano Pavarotti" ISRC GBF079910710 INDEX 01 44:53:50 TRACK 12 AUDIO TITLE "You Can Leave Your Hat On" PERFORMER "Joe Coker" ISRC GBF079910720 INDEX 01 47:06:12 TRACK 13 AUDIO TITLE "Il Cielo" PERFORMER "Renato Zero & Luciano Pavarotti" ISRC GBF079910730 INDEX 01 51:40:37 TRACK 14 AUDIO TITLE "You Need Me" PERFORMER "Boyzone" ISRC GBF079910740 INDEX 01 55:58:15 TRACK 15 AUDIO TITLE "Tu Che M' Hai Preso Il Cor" PERFORMER "Laura Pausini & Luciano Pavarotti" ISRC GBF079910750 INDEX 01 59:32:67 TRACK 16 AUDIO TITLE "You Are So Beautiful" PERFORMER "Joe Coker, Luciano Pavarotti & Alex Britti" ISRC GBF079910760 INDEX 01 63:10:27 TRACK 17 AUDIO TITLE "All Night Long" PERFORMER "Lionel Richie" ISRC GBF079910770 INDEX 01 65:58:72 TRACK 18 AUDIO TITLE "We Are The World" PERFORMER "All Artist" ISRC GBF079910780 INDEX 01 70:52:57
Доп. информация: Live from the Parco Novi Sad, Modena, 1 June 1999

Об альбоме (сборнике)

In the presence of Nobel Peace Prize Winner
Rigoberta Menchu Tum
Thanks to Orchestra Sinfonica Italiana
Conductors Leone Magiera and Jose Molina
Ars Canto G. Verdi and Guatemala Choir
(director: Silvia Rossi)
The video of "Pavarotti & Friends for the children of Guatemala and Kosovo", directed by Spike Lee, is available on Decca video 074 120-3



Показать сообщения:    

Текущее время: 05-Дек 23:41

Часовой пояс: UTC + 3


Вы не можете начинать темы
Вы не можете отвечать на сообщения
Вы не можете редактировать свои сообщения
Вы не можете удалять свои сообщения
Вы не можете голосовать в опросах
Вы не можете прикреплять файлы к сообщениям
Вы не можете скачивать файлы