(classical) Pavarotti - The Duets - 2008, FLAC (image+.cue) lossless


 

[Цитировать]

Pavarotti / The Duets
Жанр: classical
Страна-производитель диска: Germany
Год издания диска: 2008
Издатель (лейбл): Decca Music Group Limited
Номер по каталогу: 478 1099
Страна: Italia
Аудиокодек: FLAC
Тип рипа: image+.cue
Битрейт аудио: lossless
Продолжительность: 1:00:40.05
Источник: собственный рип
сайт-источник/ник/другое: с оригинального диска
Наличие сканов в содержимом раздачи: нет

Трэклист

1. Luciano Pavarotti with Celine Dion / I Hate You Then I Love You (4:48)
Live from Parco Novi Sad, Modena, 9 June 1998
L'Orchestra Filarmonica di Torino. Дирижер Marco Boemi

2. Luciano Pavarotti with Elton John / Live Like Horses (5:09)
Orchestra members: Jackie Shave, Howard Ball, Frank Lloyd,
John Pigneguy, Paul Cullington, Kate Wilkinson, Andrew Parker,
Eddie Roberts, Robin McGee, Tony Pleeth, Hugh Seenan
Дирижер - Marco Armiliato

3. Luciano Pavarotti with Mariah Carey / Hero (4:17)
Live from Parco Novi Sad, Modena, 1 June 1999
Orchestra Sinfonica Italiana. Дирижер - Jose Molina

4. Luciano Pavarotti with The Passengers: Brian Eno, Bono, The Edge / Miss Sarajevo (4:32)
from the film "Miss Sarajevo (Bill Carter, US 1994)
5. Luciano Pavarotti with Eric Clapton / Holy Mother (5:25)
Live from the Parco Novi Sad, Modena, 20 June 1996
L'Orchestra Filarmonica di Torino. Дирижер - Marco Armilliato
East London Gospel Choir (director Leroy Thompson, music director Joseph Roberts)

6. Luciano Pavarotti with Sting / Panis Angelicus (3:44)
Live from the Parco Novi Sad, Modena, 27 September 1992
Orchestra da Camera "Archangelo Corelli". Дирижер - Aido Sisilli

7. Luciano Pavarotti with Zucchero / Miserere (4:14)
Live from the Parco Novi Sad, Modena, 27 September 1992
Orchestra da Camera "Archangelo Corelli". Дирижер - Aido Sisilli

8. Luciano Pavarotti with Andrea Bocelli / Notte e Piscatore (5:03)
Live from the Parco Novi Sad, Modena. 13 September 1994
Orchestra del Teatro Comunale di Bologna. Дирижер - Leone Magiera

9. Luciano Pavarotti with Lionel Richie/ The magic of love (4:32)
Live from Parco Novi Sad, Modena, 1 June 1999
Orchestra Sinfonica Italiana. Дирижер - Jose Molina

10. Luciano Pavarotti with Bryan Adams/ O sole mio (2:56)
Live from the Parco Novi Sad, Modena. 13 September 1994
Orchestra del Teatro Comunale di Bologna. Дирижер - Leone Magiera

11. Luciano Pavarotti with Sheryl Crow / La ci Darem La Mano (3:10)
Live from the Parco Novi Sad, Modena, 20 June 1996
L'Orchestra Filarmonica di Torino. Дирижер - Marco Armilliato

12. Luciano Pavarotti with Jon Bon Jovi / Let It Rain (4:48)
Live from Parco Novi Sad, Modena, 9 June 1998
L'Orchestra Filarmonica di Torino. Дирижер Marco Boemi

13. Luciano Pavarotti with Eurythmics / There Must Be An Angel (4:25)
Live from Parco Novi Sad, Modena, 6 June 1999
Orchestra Sinfonica Italiana. Дирижер - Jose Molina

14. Luciano Pavarotti with Frank Sinatra / My Way (3:33)
Orchestra. Дирижер - Bill Miller
Запись сделана на студии Capitol в Лос-Анджелесе

Лог создания рипа

Exact Audio Copy V1.0 beta 3 from 29. August 2011
Отчёт EAC об извлечении, выполненном 14. октября 2012, 9:59
Luciano Pavarotti / The Duets
Дисковод: TSSTcorpCDDVDW SH-222AL Adapter: 3 ID: 0
Режим чтения : ДостоверностьИспользование точного потока : ДаОтключение кэша аудио : ДаИспользование указателей C2 : Нет
Коррекция смещения при чтении : 6Способность читать области Lead-in и Lead-out : НетЗаполнение пропущенных сэмплов тишиной : ДаУдаление блоков с тишиной в начале и конце : НетПри вычислениях CRC использовались нулевые сэмплы : ДаИнтерфейс : Встроенный Win32-интерфейс для Win NT/2000
Выходной формат : Внутренние WAV-операцииФормат сэмплов : 44.100 Гц; 16 бит; стерео
TOC извлечённого CD
Трек | Старт | Длительность | Начальный сектор | Конечный сектор --------------------------------------------------------------------- 1 | 0:00.00 | 4:48.00 | 0 | 21599 2 | 4:48.00 | 5:09.11 | 21600 | 44785 3 | 9:57.11 | 4:17.39 | 44786 | 64099 4 | 14:14.50 | 4:32.32 | 64100 | 84531 5 | 18:47.07 | 5:25.13 | 84532 | 108919 6 | 24:12.20 | 3:44.65 | 108920 | 125784 7 | 27:57.10 | 4:14.01 | 125785 | 144835 8 | 32:11.11 | 5:03.61 | 144836 | 167621 9 | 37:14.72 | 4:32.17 | 167622 | 188038 10 | 41:47.14 | 2:56.04 | 188039 | 201242 11 | 44:43.18 | 3:10.39 | 201243 | 215531 12 | 47:53.57 | 4:48.07 | 215532 | 237138 13 | 52:41.64 | 4:25.11 | 237139 | 257024 14 | 57:07.00 | 3:33.05 | 257025 | 273004
Характеристики диапазона извлечения и сообщения об ошибках
Выбранный диапазон
Имя файла E:\Music\Duets\Luciano Pavarotti - The Duets.wav
Пиковый уровень 98.5 % Скорость извлечения 3.0 X Качество диапазона 99.9 % CRC теста 93A77BE8 CRC копии 93A77BE8 Копирование... OK
Ошибок не произошло
AccurateRip: сводка
Трек 1 : извлечено точно (доверие 8) [A91CFE45] (AR v2)Трек 2 : извлечено точно (доверие 8) [9FBE714A] (AR v2)Трек 3 : извлечено точно (доверие 8) [0D059118] (AR v2)Трек 4 : извлечено точно (доверие 8) [83BAFBC7] (AR v2)Трек 5 : извлечено точно (доверие 8) [4D100D8A] (AR v2)Трек 6 : извлечено точно (доверие 8) [C56B0964] (AR v2)Трек 7 : извлечено точно (доверие 8) [029DDAB5] (AR v2)Трек 8 : извлечено точно (доверие 8) [C40A83C7] (AR v2)Трек 9 : извлечено точно (доверие 8) [8D8AD80A] (AR v2)Трек 10 : извлечено точно (доверие 8) [00D2300F] (AR v2)Трек 11 : извлечено точно (доверие 8) [234C4562] (AR v2)Трек 12 : извлечено точно (доверие 7) [E3AE88F3] (AR v2)Трек 13 : извлечено точно (доверие 7) [73BF0B94] (AR v2)Трек 14 : извлечено точно (доверие 8) [54C9DE5A] (AR v2)
Все треки извлечены точно

Содержание индексной карты (.CUE)

REM GENRE ClassicalREM DATE 2008REM DISCID E00E380EREM COMMENT "ExactAudioCopy v1.0b3"CATALOG 0028947810995PERFORMER "Luciano Pavarotti"TITLE "The Duets"FILE "Luciano Pavarotti - The Duets.flac" WAVE TRACK 01 AUDIO TITLE "I Hate You Then i Love You [w. Celine Dion]" PERFORMER "Luciano Pavarotti" ISRC GBF079812520 INDEX 01 00:00:00 TRACK 02 AUDIO TITLE "Live like Horses [w. Elton John]" PERFORMER "Luciano Pavarotti" ISRC GBAMS9600001 INDEX 01 04:48:00 TRACK 03 AUDIO TITLE "Hero [w. Mariah Carey]" PERFORMER "Luciano Pavarotti" ISRC GBBBA9920040 INDEX 01 09:57:11 TRACK 04 AUDIO TITLE "Miss Sarajevo [w. The Passengers - Brian Eno, Bono, The Edge]" PERFORMER "Luciano Pavarotti" ISRC GBAAN0201271 INDEX 01 14:14:50 TRACK 05 AUDIO TITLE "Holy Mother [w. Eric Clapton]" PERFORMER "Luciano Pavarotti" ISRC GBBBA9660040 INDEX 01 18:47:07 TRACK 06 AUDIO TITLE "Panis Angelicus [w. Sting]" PERFORMER "Luciano Pavarotti" ISRC GBF079240501 INDEX 01 24:12:20 TRACK 07 AUDIO TITLE "Miserere [w. Zucchero]" PERFORMER "Luciano Pavarotti" ISRC GBF079240502 INDEX 01 27:57:10 TRACK 08 AUDIO TITLE "Note'e Piscatore [w. Andrea Bocelli]" PERFORMER "Luciano Pavarotti" ISRC GBF079441510 INDEX 01 32:11:11 TRACK 09 AUDIO TITLE "The Magic of Love [w. Lionel Richie]" PERFORMER "Luciano Pavarotti" ISRC GBF079910660 INDEX 01 37:14:72 TRACK 10 AUDIO TITLE "'O Sole Mio [w. Bryan Adams]" PERFORMER "Luciano Pavarotti" ISRC GBF079910660 INDEX 01 41:47:14 TRACK 11 AUDIO TITLE "La Ci Darem la Mano [w. Sheryl Crow]" PERFORMER "Luciano Pavarotti" ISRC GBF079640712 INDEX 01 44:43:18 TRACK 12 AUDIO TITLE "Left it Rain [w. Jon Bon Jovi]" PERFORMER "Luciano Pavarotti" ISRC GBBBA9860020 INDEX 01 47:53:57 TRACK 13 AUDIO TITLE "There Must Be an Angel [w. Eurythmics]" PERFORMER "Luciano Pavarotti" ISRC GBBBB5000023 INDEX 01 52:41:64 TRACK 14 AUDIO TITLE "My Way [w. Frank Sinatra]" PERFORMER "Luciano Pavarotti" ISRC USCA29500019 INDEX 01 57:07:00
Доп. информация: MUSIC'S BIGGEST STARS in unique duets with THE WORLD'S GREATEST VOICE



Показать сообщения:    

Текущее время: 11-Дек 11:08

Часовой пояс: UTC + 3


Вы не можете начинать темы
Вы не можете отвечать на сообщения
Вы не можете редактировать свои сообщения
Вы не можете удалять свои сообщения
Вы не можете голосовать в опросах
Вы не можете прикреплять файлы к сообщениям
Вы не можете скачивать файлы