(Classical/Violin) Vanessa Mae - The Best - 2010, FLAC (image+.cue) lossless


 

[Цитировать]

Vanessa Mae / The Best
Жанр: Classical/Violin
Страна-производитель диска: Беларусь
Год издания диска: 2010
Издатель (лейбл): ВИГМА
Номер по каталогу: 3473-1
Страна: Китай
Аудиокодек: FLAC
Тип рипа: image+.cue
Битрейт аудио: lossless
Продолжительность: 01:15:02
Источник: собственный рип
Наличие сканов в содержимом раздачи: да
Треклист:
01. Red Hot (Symphonic Mix)
02. Storm
03. City Theme
04. A Poet's Quest (For A Distant Paradise)
05. Leyenda
06. Bach Street Prelude
07. (I) Can, Can (You?)
08. Contradanza
09. Aurora
10. I'm A Doun
11. Summer Haze
12. Theme From 'Caravans'
13. I Feel Love
14. Tequila Mockingbird
15. Jazz Will Eat Itself
16. Warm Air
17. Widescreen-

Лог создания рипа

Exact Audio Copy V0.99 prebeta 5 from 4. May 2009
Отчёт EAC об извлечении, выполненном 15. августа 2012, 14:13
Vanessa Mae / The Best
Дисковод: _NEC DVD_RW ND-3550A Adapter: 0 ID: 0
Режим чтения : ДостоверностьИспользование точного потока : ДаОтключение кэша аудио : ДаИспользование указателей C2 : Нет
Коррекция смещения при чтении : 48Способность читать области Lead-in и Lead-out : НетЗаполнение пропущенных сэмплов тишиной : ДаУдаление блоков с тишиной в начале и конце : НетПри вычислениях CRC использовались нулевые сэмплы : ДаИнтерфейс : Установленный внешний ASPI-интерфейс
Выходной формат : Внутренние WAV-операцииФормат сэмплов : 44.100 Гц; 16 бит; стерео
TOC извлечённого CD
Трек | Старт | Длительность | Начальный сектор | Конечный сектор --------------------------------------------------------------------- 1 | 0:00.00 | 4:32.04 | 0 | 20403 2 | 4:32.04 | 3:45.33 | 20404 | 37311 3 | 8:17.37 | 4:35.23 | 37312 | 57959 4 | 12:52.60 | 4:34.20 | 57960 | 78529 5 | 17:27.05 | 6:34.35 | 78530 | 108114 6 | 24:01.40 | 4:29.67 | 108115 | 128356 7 | 28:31.32 | 3:42.48 | 128357 | 145054 8 | 32:14.05 | 3:21.27 | 145055 | 160156 9 | 35:35.32 | 4:57.68 | 160157 | 182499 10 | 40:33.25 | 4:32.08 | 182500 | 202907 11 | 45:05.33 | 3:09.60 | 202908 | 217142 12 | 48:15.18 | 5:08.62 | 217143 | 240304 13 | 53:24.05 | 6:59.45 | 240305 | 271774 14 | 60:23.50 | 3:29.31 | 271775 | 287480 15 | 63:53.06 | 3:30.61 | 287481 | 303291 16 | 67:23.67 | 3:41.47 | 303292 | 319913 17 | 71:05.39 | 3:57.30 | 319914 | 337718
Характеристики диапазона извлечения и сообщения об ошибках
Выбранный диапазон
Имя файла F:\Music lossless\Vanessa Mae - The Best.wav
Пиковый уровень 100.0 % Качество диапазона 100.0 % CRC теста 3BDB465B CRC копии 3BDB465B Копирование... OK
Ошибок не произошло
AccurateRip: сводка
Трек 1 нет в базе данныхТрек 2 нет в базе данныхТрек 3 нет в базе данныхТрек 4 нет в базе данныхТрек 5 нет в базе данныхТрек 6 нет в базе данныхТрек 7 нет в базе данныхТрек 8 нет в базе данныхТрек 9 нет в базе данныхТрек 10 нет в базе данныхТрек 11 нет в базе данныхТрек 12 нет в базе данныхТрек 13 нет в базе данныхТрек 14 нет в базе данныхТрек 15 нет в базе данныхТрек 16 нет в базе данныхТрек 17 нет в базе данных
Ни одного трека нет в базе AccurateRip
Конец отчёта

Лог проверки качества

Started at: среда, 22. 08. 2012. - 18:54.301 file found
1 -===- F:\Music lossless\1\Vanessa Mae - The Best lossless\Vanessa Mae - The Best.flac Extracted successfully Conclusion: this track is CDDA with probability 100% Tempfile successfully deleted.
Finished at: среда, 22. 08. 2012. - 18:59.50 (operation time: 0:05.19)



Показать сообщения:    

Текущее время: 02-Дек 23:11

Часовой пояс: UTC + 3


Вы не можете начинать темы
Вы не можете отвечать на сообщения
Вы не можете редактировать свои сообщения
Вы не можете удалять свои сообщения
Вы не можете голосовать в опросах
Вы не можете прикреплять файлы к сообщениям
Вы не можете скачивать файлы