(Classical Crossover, Harp) Mai Takematsu - Legende (Tournier, Bach, Saint-Saens, Renie, Lennon, McCartney, Tyler & Child) - 1998, FLAC (image+.cue), lossless


 

[Цитировать]

Mai Takematsu - Legende
Жанр: Classical Crossover, Harp
Страна-производитель диска: Япония
Год издания диска: 2009
Издатель (лейбл): Denon/Columbia
Номер по каталогу: COCQ-84597
Аудиокодек: FLAC
Тип рипа: image+.cue
Битрейт аудио: lossless
Продолжительность: 44:42
Источник: диск из моей коллекции
Наличие сканов в содержимом раздачи: да
Треклист:
01. Tournier: Au Matin (4:29)
02. J.S.Bach: Jesu, Joy of Man's Desiring (4:29)
03. Saint-Saens, Hasselmans: Le Cygne (2:53)
04. J.S.Bach: Sarabande from Violin Partita No.1 (2:26)
05. Renie: Legende (11:54)
06. Takematsu: Pure (2:55)
07. Lennon, McCartney: Norwegian Wood (5:24)
08. Tyler & Child: Angel (6:09)
09. Lennon: Imagine (4:01)
Состав:
Mai Takematsu - harp, voice
Joji Sawada - acoustic bass
Masaaki Takashima - acoustic piano, Rhodes
Yoichi Okabe - percussion
Recorded at Nippon Columbia Studio No.1 in November 1997 - February 1998.

Лог создания рипа

Exact Audio Copy V1.0 beta 3 from 29. August 2011
EAC extraction logfile from 9. August 2012, 21:54
Mai Takematsu / Legende
Used drive : ASUS DRW-24B1LT Adapter: 5 ID: 0
Read mode : SecureUtilize accurate stream : YesDefeat audio cache : YesMake use of C2 pointers : No
Read offset correction : 6Overread into Lead-In and Lead-Out : NoFill up missing offset samples with silence : YesDelete leading and trailing silent blocks : NoNull samples used in CRC calculations : YesUsed interface : Native Win32 interface for Win NT & 2000
Used output format : User Defined EncoderSelected bitrate : 256 kBit/sQuality : HighAdd ID3 tag : NoCommand line compressor : C:\Program Files\Exact Audio Copy\Flac\flac.exeAdditional command line options : -8 -V -T "ARTIST=%artist%" -T "TITLE=%title%" -T "ALBUM=%albumtitle%" -T "DATE=%year%" -T "TRACKNUMBER=%tracknr%" -T "TOTALTRACKS=%numtracks%" -T "GENRE=%genre%" -T "ALBUMARTIST=%albumartist%" -T "ALBUM ARTIST=%albumartist%" -T "COMMENT=EAC Secure Mode, Test & Copy, AccurateRip, FLAC -8" %source%
TOC of the extracted CD
Track | Start | Length | Start sector | End sector --------------------------------------------------------- 1 | 0:00.00 | 4:29.27 | 0 | 20201 2 | 4:29.27 | 4:29.05 | 20202 | 40381 3 | 8:58.32 | 2:53.05 | 40382 | 53361 4 | 11:51.37 | 2:26.33 | 53362 | 64344 5 | 14:17.70 | 11:54.05 | 64345 | 117899 6 | 26:12.00 | 2:55.30 | 117900 | 131054 7 | 29:07.30 | 5:24.00 | 131055 | 155354 8 | 34:31.30 | 6:09.20 | 155355 | 183049 9 | 40:40.50 | 4:01.25 | 183050 | 201149
Range status and errors
Selected range
Filename F:\audio\Mai Takematsu - Legende.wav
Peak level 100.0 % Extraction speed 5.4 X Range quality 100.0 % Test CRC 3BCD56FF Copy CRC 3BCD56FF Copy OK
No errors occurred
AccurateRip summary
Track 1 cannot be verified as accurate (confidence 1) [E244BE29], AccurateRip returned [A638BC79] (AR v2)Track 2 cannot be verified as accurate (confidence 1) [B14A4C99], AccurateRip returned [159E5E57] (AR v2)Track 3 cannot be verified as accurate (confidence 1) [557DDE66], AccurateRip returned [E3C2986B] (AR v2)Track 4 cannot be verified as accurate (confidence 1) [8DA6C745], AccurateRip returned [66B3A548] (AR v2)Track 5 cannot be verified as accurate (confidence 1) [913C793D], AccurateRip returned [21F12ECE] (AR v2)Track 6 cannot be verified as accurate (confidence 1) [791FAB80], AccurateRip returned [77836ED5] (AR v2)Track 7 cannot be verified as accurate (confidence 1) [89819E00], AccurateRip returned [2C4E36D6] (AR v2)Track 8 cannot be verified as accurate (confidence 1) [1B26FAF3], AccurateRip returned [65C60C83] (AR v2)Track 9 cannot be verified as accurate (confidence 1) [EC59C7D1], AccurateRip returned [0ABFF015] (AR v2)
No tracks could be verified as accurateYou may have a different pressing from the one(s) in the database
End of status report
---- CUETools DB Plugin V2.1.3
[CTDB TOCID: vqea0kdhbeuQ4PoNS6rb2LW8GDI-] disk not present in database, Submit result: vqea0kdhbeuQ4PoNS6rb2LW8GDI- has been uploaded
==== Log checksum AB615DAE6DA64F3B1C70B7CC54E42328E7E79978F089FCF0A27A3E7F22765F6E ====

Содержание индексной карты (.CUE)

REM GENRE ClassicalREM DATE 1998REM DISCID 740A7A09REM COMMENT "ExactAudioCopy v1.0b3"PERFORMER "Mai Takematsu"TITLE "Legende"FILE "Mai Takematsu - Legende.wav" WAVE TRACK 01 AUDIO TITLE "Tournier: Au Matin" PERFORMER "Mai Takematsu" INDEX 01 00:00:00 TRACK 02 AUDIO TITLE "J.S.Bach: Jesu, Joy of Man's Desiring" PERFORMER "Mai Takematsu" INDEX 01 04:29:27 TRACK 03 AUDIO TITLE "Saint-Saens, Hasselmans: Le Cygne" PERFORMER "Mai Takematsu" INDEX 01 08:58:32 TRACK 04 AUDIO TITLE "J.S.Bach: Sarabande from Violin Partita No.1" PERFORMER "Mai Takematsu" INDEX 01 11:51:37 TRACK 05 AUDIO TITLE "Renie: Legende" PERFORMER "Mai Takematsu" INDEX 01 14:17:70 TRACK 06 AUDIO TITLE "Takematsu: Pure" PERFORMER "Mai Takematsu" INDEX 01 26:12:00 TRACK 07 AUDIO TITLE "Lennon, McCartney: Norwegian Wood" PERFORMER "Mai Takematsu" INDEX 00 29:04:65 INDEX 01 29:07:30 TRACK 08 AUDIO TITLE "Tyler & Child: Angel" PERFORMER "Mai Takematsu" INDEX 00 34:30:30 INDEX 01 34:31:30 TRACK 09 AUDIO TITLE "Lennon: Imagine" PERFORMER "Mai Takematsu" INDEX 00 40:39:35 INDEX 01 40:40:50



Показать сообщения:    

Текущее время: 03-Дек 20:45

Часовой пояс: UTC + 3


Вы не можете начинать темы
Вы не можете отвечать на сообщения
Вы не можете редактировать свои сообщения
Вы не можете удалять свои сообщения
Вы не можете голосовать в опросах
Вы не можете прикреплять файлы к сообщениям
Вы не можете скачивать файлы