(Classical, Rock) Vitamin String Quartet - Metamorphic: The String Quartet Tribute to Tool, Vol. 2 - 2003, FLAC (tracks+.cue) lossless


 

[Цитировать]

Vitamin String Quartet / Metamorphic: The String Quartet Tribute to Tool, Vol. 2
Жанр: Classical, Rock
Страна-производитель диска: США
Год издания диска: 2003
Страна: США
Аудиокодек: FLAC
Тип рипа: tracks+.cue
Битрейт аудио: lossless
Продолжительность: 01:00:56
Источник: what.cd (maxpower4738)
Наличие сканов в содержимом раздачи: нет
Треклист:
1. Vitamin String Quartet - Stinkfist (5:13)
2. Vitamin String Quartet - Sweat (3:35)
3. Vitamin String Quartet - Prison Sex (4:49)
4. Vitamin String Quartet - Undertow (5:05)
5. Vitamin String Quartet - Eulogy (acoustic) (8:31)
6. Vitamin String Quartet - Jimmy (5:30)
7. Vitamin String Quartet - Lateralus (8:08)
8. Vitamin String Quartet - Disposition (3:41)
9. Vitamin String Quartet - Parabol (3:10)
10. Vitamin String Quartet - Eulogy (remix) (8:33)
11. Vitamin String Quartet - Rampant (original composition) (4:41)

Лог создания рипа

Exact Audio Copy V1.0 beta 3 from 29. August 2011
EAC extraction logfile from 11. April 2012, 10:32
Vitamin String Quartet / The String Quartet Tribute to Tool, Volume 2: Metamorphic
Used drive : ASUS BW-12B1ST Adapter: 0 ID: 0
Read mode : SecureUtilize accurate stream : YesDefeat audio cache : YesMake use of C2 pointers : No
Read offset correction : 6Overread into Lead-In and Lead-Out : NoFill up missing offset samples with silence : YesDelete leading and trailing silent blocks : NoNull samples used in CRC calculations : YesUsed interface : Native Win32 interface for Win NT & 2000Gap handling : Appended to previous track
Used output format : User Defined EncoderSelected bitrate : 1024 kBit/sQuality : HighAdd ID3 tag : NoCommand line compressor : C:\Program Files (x86)\Exact Audio Copy\FLAC\FLAC.EXEAdditional command line options : -8 -V -T "ARTIST=%artist%" -T "TITLE=%title%" -T "ALBUM=%albumtitle%" -T "DATE=%year%" -T "TRACKNUMBER=%tracknr%" -T "GENRE=%genre%" -T "PERFORMER=%albuminterpret%" -T "COMPOSER=%composer%" %haslyrics%--tag-from-file=LYRICS="%lyricsfile%"%haslyrics% -T "ALBUMARTIST=%albumartist%" -T "DISCNUMBER=%cdnumber%" -T "TOTALDISCS=%totalcds%" -T "TOTALTRACKS=%numtracks%" -T "COMMENT=%comment%" %source% -o %dest%
TOC of the extracted CD
Track | Start | Length | Start sector | End sector --------------------------------------------------------- 1 | 0:00.00 | 5:13.04 | 0 | 23478 2 | 5:13.04 | 3:35.11 | 23479 | 39614 3 | 8:48.15 | 4:49.26 | 39615 | 61315 4 | 13:37.41 | 5:05.21 | 61316 | 84211 5 | 18:42.62 | 8:31.16 | 84212 | 122552 6 | 27:14.03 | 5:30.68 | 122553 | 147370 7 | 32:44.71 | 8:08.21 | 147371 | 183991 8 | 40:53.17 | 3:41.31 | 183992 | 200597 9 | 44:34.48 | 3:10.06 | 200598 | 214853 10 | 47:44.54 | 8:33.02 | 214854 | 253330 11 | 56:17.56 | 4:41.51 | 253331 | 274456
Track 1
Filename E:\DVD\Vitamin String Quartet - Metamorphic The String Quartet Tribute to Tool, Vol. 2 (2003) [FLAC]\01 - Stinkfist.wav
Pre-gap length 0:00:02.00
Peak level 75.4 % Extraction speed 1.6 X Track quality 99.9 % Test CRC 8B95A6F7 Copy CRC 8B95A6F7 Accurately ripped (confidence 4) [BD3F91E8] (AR v1) Copy OK
Track 2
Filename E:\DVD\Vitamin String Quartet - Metamorphic The String Quartet Tribute to Tool, Vol. 2 (2003) [FLAC]\02 - Sweat.wav
Pre-gap length 0:00:01.86
Peak level 74.6 % Extraction speed 1.6 X Track quality 99.9 % Test CRC 818C4877 Copy CRC 818C4877 Accurately ripped (confidence 3) [4F3E0F79] (AR v1) Copy OK
Track 3
Filename E:\DVD\Vitamin String Quartet - Metamorphic The String Quartet Tribute to Tool, Vol. 2 (2003) [FLAC]\03 - Prison Sex.wav
Pre-gap length 0:00:02.42
Peak level 80.1 % Extraction speed 2.5 X Track quality 100.0 % Test CRC 285AE708 Copy CRC 285AE708 Accurately ripped (confidence 4) [7223A66F] (AR v1) Copy OK
Track 4
Filename E:\DVD\Vitamin String Quartet - Metamorphic The String Quartet Tribute to Tool, Vol. 2 (2003) [FLAC]\04 - Undertow.wav
Pre-gap length 0:00:02.77
Peak level 82.7 % Extraction speed 2.7 X Track quality 100.0 % Test CRC 6C3FA6D1 Copy CRC 6C3FA6D1 Accurately ripped (confidence 4) [2EB5EFA4] (AR v1) Copy OK
Track 5
Filename E:\DVD\Vitamin String Quartet - Metamorphic The String Quartet Tribute to Tool, Vol. 2 (2003) [FLAC]\05 - Eulogy (acoustic).wav
Peak level 76.0 % Extraction speed 3.1 X Track quality 100.0 % Test CRC DF046CEE Copy CRC DF046CEE Accurately ripped (confidence 4) [13B4503B] (AR v1) Copy OK
Track 6
Filename E:\DVD\Vitamin String Quartet - Metamorphic The String Quartet Tribute to Tool, Vol. 2 (2003) [FLAC]\06 - Jimmy.wav
Pre-gap length 0:00:02.34
Peak level 72.5 % Extraction speed 3.3 X Track quality 100.0 % Test CRC 628EE474 Copy CRC 628EE474 Accurately ripped (confidence 4) [7E7A0CB6] (AR v1) Copy OK
Track 7
Filename E:\DVD\Vitamin String Quartet - Metamorphic The String Quartet Tribute to Tool, Vol. 2 (2003) [FLAC]\07 - Lateralus.wav
Pre-gap length 0:00:02.22
Peak level 80.7 % Extraction speed 3.6 X Track quality 100.0 % Test CRC F8B07DAC Copy CRC F8B07DAC Accurately ripped (confidence 4) [15C3A8E1] (AR v1) Copy OK
Track 8
Filename E:\DVD\Vitamin String Quartet - Metamorphic The String Quartet Tribute to Tool, Vol. 2 (2003) [FLAC]\08 - Disposition.wav
Pre-gap length 0:00:01.84
Peak level 73.9 % Extraction speed 2.5 X Track quality 99.9 % Test CRC 0A1EB0C3 Copy CRC 0A1EB0C3 Accurately ripped (confidence 4) [FFF96688] (AR v1) Copy OK
Track 9
Filename E:\DVD\Vitamin String Quartet - Metamorphic The String Quartet Tribute to Tool, Vol. 2 (2003) [FLAC]\09 - Parabol.wav
Pre-gap length 0:00:02.60
Peak level 70.8 % Extraction speed 3.5 X Track quality 100.0 % Test CRC F44A39E2 Copy CRC F44A39E2 Accurately ripped (confidence 4) [6D93D839] (AR v1) Copy OK
Track 10
Filename E:\DVD\Vitamin String Quartet - Metamorphic The String Quartet Tribute to Tool, Vol. 2 (2003) [FLAC]\10 - Eulogy (remix).wav
Pre-gap length 0:00:00.70
Peak level 77.1 % Extraction speed 4.1 X Track quality 100.0 % Test CRC 563EED83 Copy CRC 563EED83 Accurately ripped (confidence 4) [FFFCEEBE] (AR v1) Copy OK
Track 11
Filename E:\DVD\Vitamin String Quartet - Metamorphic The String Quartet Tribute to Tool, Vol. 2 (2003) [FLAC]\11 - Rampant (original composition).wav
Pre-gap length 0:00:00.76
Peak level 78.1 % Extraction speed 4.0 X Track quality 100.0 % Test CRC 137D73D5 Copy CRC 137D73D5 Accurately ripped (confidence 3) [56ABDED2] (AR v1) Copy OK
All tracks accurately ripped
No errors occurred
End of status report
---- CUETools DB Plugin V2.1.3
[CTDB TOCID: jAUDQijCJmyFrwPZCW1uW1RsriU-] found, Submit result: jAUDQijCJmyFrwPZCW1uW1RsriU- has been confirmed[3f12a5e8] (2/2) Accurately ripped
==== Log checksum 647A86E7DE78CA2C02CC1F02614D72F5022234C31DB48DBAA138CDAE7B300D2D ====

Содержание индексной карты (.CUE)

REM DATE 2003REM DISCID A40E4B0BREM COMMENT "ExactAudioCopy v1.0b3"PERFORMER "Vitamin String Quartet"TITLE "The String Quartet Tribute to Tool, Volume 2: Metamorphic"FILE "01 - Stinkfist.wav" WAVE TRACK 01 AUDIO TITLE "Stinkfist" PERFORMER "Vitamin String Quartet" INDEX 01 00:00:00 TRACK 02 AUDIO TITLE "Sweat" PERFORMER "Vitamin String Quartet" INDEX 00 05:11:14FILE "02 - Sweat.wav" WAVE INDEX 01 00:00:00 TRACK 03 AUDIO TITLE "Prison Sex" PERFORMER "Vitamin String Quartet" INDEX 00 03:32:54FILE "03 - Prison Sex.wav" WAVE INDEX 01 00:00:00 TRACK 04 AUDIO TITLE "Undertow" PERFORMER "Vitamin String Quartet" INDEX 00 04:46:43FILE "04 - Undertow.wav" WAVE INDEX 01 00:00:00FILE "05 - Eulogy (acoustic).wav" WAVE TRACK 05 AUDIO TITLE "Eulogy (acoustic)" PERFORMER "Vitamin String Quartet" INDEX 01 00:00:00 TRACK 06 AUDIO TITLE "Jimmy" PERFORMER "Vitamin String Quartet" INDEX 00 08:28:65FILE "06 - Jimmy.wav" WAVE INDEX 01 00:00:00 TRACK 07 AUDIO TITLE "Lateralus" PERFORMER "Vitamin String Quartet" INDEX 00 05:28:51FILE "07 - Lateralus.wav" WAVE INDEX 01 00:00:00 TRACK 08 AUDIO TITLE "Disposition" PERFORMER "Vitamin String Quartet" INDEX 00 08:06:33FILE "08 - Disposition.wav" WAVE INDEX 01 00:00:00 TRACK 09 AUDIO TITLE "Parabol" PERFORMER "Vitamin String Quartet" INDEX 00 03:38:61FILE "09 - Parabol.wav" WAVE INDEX 01 00:00:00 TRACK 10 AUDIO TITLE "Eulogy (remix)" PERFORMER "Vitamin String Quartet" INDEX 00 03:09:28FILE "10 - Eulogy (remix).wav" WAVE INDEX 01 00:00:00 TRACK 11 AUDIO TITLE "Rampant (original composition)" PERFORMER "Vitamin String Quartet" INDEX 00 08:32:20FILE "11 - Rampant (original composition).wav" WAVE INDEX 01 00:00:00



Показать сообщения:    

Текущее время: 10-Дек 00:15

Часовой пояс: UTC + 3


Вы не можете начинать темы
Вы не можете отвечать на сообщения
Вы не можете редактировать свои сообщения
Вы не можете удалять свои сообщения
Вы не можете голосовать в опросах
Вы не можете прикреплять файлы к сообщениям
Вы не можете скачивать файлы