(Easy Listening, Classical) John Bayless - Bach Meets The Beatles - 1984, FLAC (tracks+.cue), lossless


 

[Цитировать]

John Bayless - Bach Meets The Beatles
Жанр: Easy Listening, Classical
Страна-производитель диска: USA/Japan
Год издания диска: 1984
Издатель (лейбл): Intersound
Номер по каталогу: CDD-211
Страна: USA
Аудио кодек: FLAC
Тип рипа: tracks+.cue
Битрейт аудио: lossless
Продолжительность: 53:39
Источник (релизер): usmale
Наличие сканов в содержимом раздачи: да
Трэклист:
01. Imagine-Sinfonia 3:23
02. All You Need Is Love 4:02
03. Hey Jude 2:49
04. Because 4:10
05. Let It Be 4:17
06. The Long And Winding Road 4:48
07. Penny Lane 3:26
08. Yesterday 2:29
09. Michelle 3:55
10. Nowhere Man 3:48
11. And I Love Her 3:04
12. Golden Slumbers - You Never Give Me Your Money 4:12
13. Something 3:30
14. Here, There And Everywhere 3:53
15. Imagine-Aria 1:53

Лог создания рипа

Exact Audio Copy V1.0 beta 3 from 29. August 2011
EAC extraction logfile from 3. March 2012, 17:29
John Bayless / Bach Meets The Beatles
Used drive : HL-DT-STDVD+-RW GSA-H73N Adapter: 1 ID: 0
Read mode : SecureUtilize accurate stream : YesDefeat audio cache : YesMake use of C2 pointers : No
Read offset correction : 102Overread into Lead-In and Lead-Out : NoFill up missing offset samples with silence : YesDelete leading and trailing silent blocks : NoNull samples used in CRC calculations : YesUsed interface : Native Win32 interface for Win NT & 2000Gap handling : Appended to previous track
Used output format : User Defined EncoderSelected bitrate : 1024 kBit/sQuality : HighAdd ID3 tag : NoCommand line compressor : C:\Program Files\Exact Audio Copy\Flac\flac.exeAdditional command line options : -8 -V -T "ARTIST=%artist%" -T "TITLE=%title%" -T "ALBUM=%albumtitle%" -T "DATE=%year%" -T "TRACKNUMBER=%tracknr%" -T "GENRE=%genre%" -T "PERFORMER=%albuminterpret%" -T "COMPOSER=%composer%" %haslyrics%--tag-from-file=LYRICS="%lyricsfile%"%haslyrics% -T "ALBUMARTIST=%albumartist%" -T "DISCNUMBER=%cdnumber%" -T "TOTALDISCS=%totalcds%" -T "TOTALTRACKS=%numtracks%" -T "COMMENT=%comment%" %source% -o %dest%
TOC of the extracted CD
Track | Start | Length | Start sector | End sector --------------------------------------------------------- 1 | 0:00.00 | 3:23.00 | 0 | 15224 2 | 3:23.00 | 4:02.00 | 15225 | 33374 3 | 7:25.00 | 2:49.00 | 33375 | 46049 4 | 10:14.00 | 4:10.00 | 46050 | 64799 5 | 14:24.00 | 4:17.00 | 64800 | 84074 6 | 18:41.00 | 4:48.00 | 84075 | 105674 7 | 23:29.00 | 3:26.00 | 105675 | 121124 8 | 26:55.00 | 2:29.00 | 121125 | 132299 9 | 29:24.00 | 3:55.00 | 132300 | 149924 10 | 33:19.00 | 3:48.00 | 149925 | 167024 11 | 37:07.00 | 3:04.00 | 167025 | 180824 12 | 40:11.00 | 4:12.00 | 180825 | 199724 13 | 44:23.00 | 3:30.00 | 199725 | 215474 14 | 47:53.00 | 3:53.00 | 215475 | 232949 15 | 51:46.00 | 1:53.15 | 232950 | 241439
Track 1
Filename K:\Audio Projects\EAC Rips\01 - Imagine-Sinfonia.wav
Pre-gap length 0:00:02.00
Peak level 72.8 % Extraction speed 1.7 X Track quality 100.0 % Test CRC 6DE8EE1B Copy CRC 6DE8EE1B Accurately ripped (confidence 2) [3FE8488F] (AR v1) Copy OK
Track 2
Filename K:\Audio Projects\EAC Rips\02 - All You Need Is Love.wav
Peak level 56.6 % Extraction speed 1.7 X Track quality 99.9 % Test CRC 79BE8D84 Copy CRC 79BE8D84 Accurately ripped (confidence 2) [5043F606] (AR v1) Copy OK
Track 3
Filename K:\Audio Projects\EAC Rips\03 - Hey Jude.wav
Peak level 64.5 % Extraction speed 1.6 X Track quality 99.9 % Test CRC 9E3E3A8D Copy CRC 9E3E3A8D Accurately ripped (confidence 2) [8D2074DA] (AR v1) Copy OK
Track 4
Filename K:\Audio Projects\EAC Rips\04 - Because.wav
Peak level 29.5 % Extraction speed 1.9 X Track quality 99.9 % Test CRC F449A046 Copy CRC F449A046 Accurately ripped (confidence 2) [5FC7655B] (AR v1) Copy OK
Track 5
Filename K:\Audio Projects\EAC Rips\05 - Let It Be.wav
Peak level 48.6 % Extraction speed 2.2 X Track quality 100.0 % Test CRC 7BF356CA Copy CRC 7BF356CA Accurately ripped (confidence 2) [CBA92A05] (AR v1) Copy OK
Track 6
Filename K:\Audio Projects\EAC Rips\06 - The Long And Winding Road.wav
Peak level 39.5 % Extraction speed 2.5 X Track quality 100.0 % Test CRC 556795BC Copy CRC 556795BC Accurately ripped (confidence 2) [F98AC092] (AR v1) Copy OK
Track 7
Filename K:\Audio Projects\EAC Rips\07 - Penny Lane.wav
Peak level 70.5 % Extraction speed 2.5 X Track quality 100.0 % Test CRC 055B4953 Copy CRC 055B4953 Accurately ripped (confidence 2) [FD485670] (AR v1) Copy OK
Track 8
Filename K:\Audio Projects\EAC Rips\08 - Yesterday.wav
Peak level 49.6 % Extraction speed 2.4 X Track quality 100.0 % Test CRC C8FDF64A Copy CRC C8FDF64A Accurately ripped (confidence 2) [A8AF1699] (AR v1) Copy OK
Track 9
Filename K:\Audio Projects\EAC Rips\09 - Michelle.wav
Peak level 57.5 % Extraction speed 2.7 X Track quality 100.0 % Test CRC 23F2049B Copy CRC 23F2049B Accurately ripped (confidence 2) [A846124E] (AR v1) Copy OK
Track 10
Filename K:\Audio Projects\EAC Rips\10 - Nowhere Man.wav
Peak level 20.2 % Extraction speed 2.8 X Track quality 100.0 % Test CRC AC40AB47 Copy CRC AC40AB47 Accurately ripped (confidence 2) [88880889] (AR v1) Copy OK
Track 11
Filename K:\Audio Projects\EAC Rips\11 - And I Love Her.wav
Peak level 84.7 % Extraction speed 2.8 X Track quality 100.0 % Test CRC 3CCEE9A3 Copy CRC 3CCEE9A3 Accurately ripped (confidence 2) [BD92328A] (AR v1) Copy OK
Track 12
Filename K:\Audio Projects\EAC Rips\12 - Golden Slumbers - You Never Give Me Your Money.wav
Peak level 31.3 % Extraction speed 2.7 X Track quality 99.9 % Test CRC C84ED3E4 Copy CRC C84ED3E4 Accurately ripped (confidence 2) [AA06A17B] (AR v1) Copy OK
Track 13
Filename K:\Audio Projects\EAC Rips\13 - Something.wav
Peak level 56.7 % Extraction speed 3.1 X Track quality 100.0 % Test CRC CDD4EF0E Copy CRC CDD4EF0E Accurately ripped (confidence 2) [3E81BFEF] (AR v1) Copy OK
Track 14
Filename K:\Audio Projects\EAC Rips\14 - Here, There And Everywhere.wav
Peak level 21.4 % Extraction speed 3.2 X Track quality 100.0 % Test CRC 14342637 Copy CRC 14342637 Accurately ripped (confidence 2) [94BA2FD2] (AR v1) Copy OK
Track 15
Filename K:\Audio Projects\EAC Rips\15 - Imagine-Aria.wav
Peak level 13.8 % Extraction speed 2.3 X Track quality 99.9 % Test CRC B7D39D11 Copy CRC B7D39D11 Accurately ripped (confidence 2) [9D0D031C] (AR v1) Copy OK
All tracks accurately ripped
No errors occurred
End of status report
---- CUETools DB Plugin V2.1.3
[CTDB TOCID: Mb0MqcaVGJ_vzKZhUPdfEnqCB4c-] disk not present in database, Submit result: Mb0MqcaVGJ_vzKZhUPdfEnqCB4c- has been uploaded
==== Log checksum D88C85ED80C5CF55EC4BC1C54A1614F75256E65425C826D15219902CB1B24DE3 ====

Содержание индексной карты (.CUE)

REM GENRE ClassicalREM DATE 1984REM DISCID BB0C930FREM COMMENT "ExactAudioCopy v1.0b3"PERFORMER "John Bayless"TITLE "Bach Meets The Beatles"FILE "01 - Imagine-Sinfonia.wav" WAVE TRACK 01 AUDIO TITLE "Imagine-Sinfonia" PERFORMER "John Bayless" INDEX 01 00:00:00FILE "02 - All You Need Is Love.wav" WAVE TRACK 02 AUDIO TITLE "All You Need Is Love" PERFORMER "John Bayless" INDEX 01 00:00:00FILE "03 - Hey Jude.wav" WAVE TRACK 03 AUDIO TITLE "Hey Jude" PERFORMER "John Bayless" INDEX 01 00:00:00FILE "04 - Because.wav" WAVE TRACK 04 AUDIO TITLE "Because" PERFORMER "John Bayless" INDEX 01 00:00:00FILE "05 - Let It Be.wav" WAVE TRACK 05 AUDIO TITLE "Let It Be" PERFORMER "John Bayless" INDEX 01 00:00:00FILE "06 - The Long And Winding Road.wav" WAVE TRACK 06 AUDIO TITLE "The Long And Winding Road" PERFORMER "John Bayless" INDEX 01 00:00:00FILE "07 - Penny Lane.wav" WAVE TRACK 07 AUDIO TITLE "Penny Lane" PERFORMER "John Bayless" INDEX 01 00:00:00FILE "08 - Yesterday.wav" WAVE TRACK 08 AUDIO TITLE "Yesterday" PERFORMER "John Bayless" INDEX 01 00:00:00FILE "09 - Michelle.wav" WAVE TRACK 09 AUDIO TITLE "Michelle" PERFORMER "John Bayless" INDEX 01 00:00:00FILE "10 - Nowhere Man.wav" WAVE TRACK 10 AUDIO TITLE "Nowhere Man" PERFORMER "John Bayless" INDEX 01 00:00:00FILE "11 - And I Love Her.wav" WAVE TRACK 11 AUDIO TITLE "And I Love Her" PERFORMER "John Bayless" INDEX 01 00:00:00FILE "12 - Golden Slumbers - You Never Give Me Your Money.wav" WAVE TRACK 12 AUDIO TITLE "Golden Slumbers - You Never Give Me Your Money" PERFORMER "John Bayless" INDEX 01 00:00:00FILE "13 - Something.wav" WAVE TRACK 13 AUDIO TITLE "Something" PERFORMER "John Bayless" INDEX 01 00:00:00FILE "14 - Here, There And Everywhere.wav" WAVE TRACK 14 AUDIO TITLE "Here, There And Everywhere" PERFORMER "John Bayless" INDEX 01 00:00:00FILE "15 - Imagine-Aria.wav" WAVE TRACK 15 AUDIO TITLE "Imagine-Aria" PERFORMER "John Bayless" INDEX 01 00:00:00

Back, Cd




Показать сообщения:    

Текущее время: 04-Дек 11:15

Часовой пояс: UTC + 3


Вы не можете начинать темы
Вы не можете отвечать на сообщения
Вы не можете редактировать свои сообщения
Вы не можете удалять свои сообщения
Вы не можете голосовать в опросах
Вы не можете прикреплять файлы к сообщениям
Вы не можете скачивать файлы