(Modern Classical, Electronic) Rondo Veneziano - Masquerade - 1989, FLAC (tracks+.cue) lossless


 

[Цитировать]

Rondo Veneziano / Masquerade
Жанр: Modern Classical, Electronic
Страна-производитель диска: West Germany
Год издания диска: 1989
Издатель (лейбл): Baby Records
Номер по каталогу: BR 156122 CD
Страна: Italy
Аудиокодек: FLAC
Тип рипа: tracks+.cue
Битрейт аудио: lossless
Продолжительность: 31:28
Источник: собственный рип
сайт-источник/ник/другое: CD-DA
Наличие сканов в содержимом раздачи: да
Треклист:
01 Costellazioni 3:13
02 Venti D'Oriente 3:01
03 Luci E Colori Di Venezia 3:19
04 Ultimo Incontro 3:09
05 Accademia 4:00
06 Visioni Di Venezia 3:58
07 Oltremare 2:51
08 Le Muse 2:50
09 Note Veneziane 2:34
10 Floralis 2:21

Лог создания рипа

Exact Audio Copy V1.0 beta 3 from 29. August 2011
EAC extraction logfile from 15. March 2012, 0:35
Rondo Veneziano / Masquerade
Used drive : Optiarc DVD RW AD-7203S Adapter: 2 ID: 1
Read mode : SecureUtilize accurate stream : YesDefeat audio cache : YesMake use of C2 pointers : No
Read offset correction : 48Overread into Lead-In and Lead-Out : NoFill up missing offset samples with silence : YesDelete leading and trailing silent blocks : NoNull samples used in CRC calculations : YesUsed interface : Native Win32 interface for Win NT & 2000Gap handling : Appended to previous track
Used output format : Internal WAV RoutinesSample format : 44.100 Hz; 16 Bit; Stereo
TOC of the extracted CD
Track | Start | Length | Start sector | End sector --------------------------------------------------------- 1 | 0:00.33 | 3:15.00 | 33 | 14657 2 | 3:15.33 | 3:02.35 | 14658 | 28342 3 | 6:17.68 | 3:20.40 | 28343 | 43382 4 | 9:38.33 | 3:10.25 | 43383 | 57657 5 | 12:48.58 | 4:00.50 | 57658 | 75707 6 | 16:49.33 | 4:00.00 | 75708 | 93707 7 | 20:49.33 | 2:52.25 | 93708 | 106632 8 | 23:41.58 | 2:51.12 | 106633 | 119469 9 | 26:32.70 | 2:35.13 | 119470 | 131107 10 | 29:08.08 | 2:20.50 | 131108 | 141657
Track 1
Filename D:\Rondo Veneziano - Masquerade (1989)\01 - Costellazioni.wav
Pre-gap length 0:00:02.33
Peak level 73.6 % Extraction speed 2.2 X Track quality 100.0 % Test CRC CA797628 Copy CRC CA797628 Accurately ripped (confidence 2) [1C4E7231] (AR v1) Copy OK
Track 2
Filename D:\Rondo Veneziano - Masquerade (1989)\02 - Venti D'Oriente.wav
Pre-gap length 0:00:01.50
Peak level 100.0 % Extraction speed 2.4 X Track quality 100.0 % Test CRC 93FC7B6B Copy CRC 93FC7B6B Accurately ripped (confidence 2) [CAC01919] (AR v1) Copy OK
Track 3
Filename D:\Rondo Veneziano - Masquerade (1989)\03 - Luci E Colori Di Venezia.wav
Pre-gap length 0:00:01.10
Peak level 57.6 % Extraction speed 2.3 X Track quality 99.9 % Test CRC 1377EBD1 Copy CRC 1377EBD1 Accurately ripped (confidence 2) [D02EADD3] (AR v1) Copy OK
Track 4
Filename D:\Rondo Veneziano - Masquerade (1989)\04 - Ultimo Incontro.wav
Pre-gap length 0:00:01.50
Peak level 42.7 % Extraction speed 2.8 X Track quality 100.0 % Test CRC 6F0F09CE Copy CRC 6F0F09CE Accurately ripped (confidence 2) [94C76BD1] (AR v1) Copy OK
Track 5
Filename D:\Rondo Veneziano - Masquerade (1989)\05 - Accademia.wav
Pre-gap length 0:00:00.68
Peak level 86.1 % Extraction speed 2.7 X Track quality 99.9 % Test CRC 3C5931FF Copy CRC 3C5931FF Accurately ripped (confidence 2) [D77A73ED] (AR v1) Copy OK
Track 6
Filename D:\Rondo Veneziano - Masquerade (1989)\06 - Visioni Di Venezia.wav
Pre-gap length 0:00:00.43
Peak level 87.6 % Extraction speed 2.9 X Track quality 99.9 % Test CRC 675DA8CA Copy CRC 675DA8CA Accurately ripped (confidence 2) [B419CEBD] (AR v1) Copy OK
Track 7
Filename D:\Rondo Veneziano - Masquerade (1989)\07 - Oltremare.wav
Pre-gap length 0:00:01.53
Peak level 65.7 % Extraction speed 2.8 X Track quality 99.9 % Test CRC 9D14D3E0 Copy CRC 9D14D3E0 Accurately ripped (confidence 2) [FFD5C524] (AR v1) Copy OK
Track 8
Filename D:\Rondo Veneziano - Masquerade (1989)\08 - Le Muse.wav
Pre-gap length 0:00:00.73
Peak level 47.4 % Extraction speed 3.4 X Track quality 100.0 % Test CRC AB004E8F Copy CRC AB004E8F Accurately ripped (confidence 2) [8FDDAD7C] (AR v1) Copy OK
Track 9
Filename D:\Rondo Veneziano - Masquerade (1989)\09 - Note Veneziane.wav
Pre-gap length 0:00:01.00
Peak level 91.3 % Extraction speed 3.4 X Track quality 100.0 % Test CRC 35455D7E Copy CRC 35455D7E Accurately ripped (confidence 2) [D34B7673] (AR v1) Copy OK
Track 10
Filename D:\Rondo Veneziano - Masquerade (1989)\10 - Floralis.wav
Pre-gap length 0:00:01.03
Peak level 50.1 % Extraction speed 3.4 X Track quality 100.0 % Test CRC 88947532 Copy CRC 88947532 Accurately ripped (confidence 2) [5C60D76B] (AR v1) Copy OK
All tracks accurately ripped
No errors occurred
End of status report
==== Log checksum D0A16CE3288C06BBA0D246E20AA6D574FD0D612340F191BF63D3518C33092947 ====

Содержание индексной карты (.CUE)

REM DATE 1989REM DISCID 7707600AREM COMMENT "ExactAudioCopy v1.0b3"PERFORMER "Rondo Veneziano"TITLE "Masquerade"FILE "01 - Costellazioni.wav" WAVE TRACK 01 AUDIO TITLE "Costellazioni" PERFORMER "Rondo Veneziano" PREGAP 00:00:33 INDEX 01 00:00:00 TRACK 02 AUDIO TITLE "Venti D'Oriente" PERFORMER "Rondo Veneziano" INDEX 00 03:13:25FILE "02 - Venti D'Oriente.wav" WAVE INDEX 01 00:00:00 TRACK 03 AUDIO TITLE "Luci E Colori Di Venezia" PERFORMER "Rondo Veneziano" INDEX 00 03:01:25FILE "03 - Luci E Colori Di Venezia.wav" WAVE INDEX 01 00:00:00 TRACK 04 AUDIO TITLE "Ultimo Incontro" PERFORMER "Rondo Veneziano" INDEX 00 03:18:65FILE "04 - Ultimo Incontro.wav" WAVE INDEX 01 00:00:00 TRACK 05 AUDIO TITLE "Accademia" PERFORMER "Rondo Veneziano" INDEX 00 03:09:32FILE "05 - Accademia.wav" WAVE INDEX 01 00:00:00 TRACK 06 AUDIO TITLE "Visioni Di Venezia" PERFORMER "Rondo Veneziano" INDEX 00 04:00:07FILE "06 - Visioni Di Venezia.wav" WAVE INDEX 01 00:00:00 TRACK 07 AUDIO TITLE "Oltremare" PERFORMER "Rondo Veneziano" INDEX 00 03:58:22FILE "07 - Oltremare.wav" WAVE INDEX 01 00:00:00 TRACK 08 AUDIO TITLE "Le Muse" PERFORMER "Rondo Veneziano" INDEX 00 02:51:27FILE "08 - Le Muse.wav" WAVE INDEX 01 00:00:00 TRACK 09 AUDIO TITLE "Note Veneziane" PERFORMER "Rondo Veneziano" INDEX 00 02:50:12FILE "09 - Note Veneziane.wav" WAVE INDEX 01 00:00:00 TRACK 10 AUDIO TITLE "Floralis" PERFORMER "Rondo Veneziano" INDEX 00 02:34:10FILE "10 - Floralis.wav" WAVE INDEX 01 00:00:00
Доп. информация:
Диск фирменный, из моей коллекции.
Сканы 600 dpi TIFF (LZV)
Внимание!!!
Данный релиз только для ознакомительного прослушивания! После прослушивания всё сломайте, сожгите и закопайте!
Соорудите могильный камень! Что бы авторские права покоились с миром, чтоб никто и никогда не узнал что такой диск существовал!
http://www.discogs.com/Rond%C3%B2-Veneziano-Masquerade/release/2515250



Показать сообщения:    

Текущее время: 03-Дек 14:39

Часовой пояс: UTC + 3


Вы не можете начинать темы
Вы не можете отвечать на сообщения
Вы не можете редактировать свои сообщения
Вы не можете удалять свои сообщения
Вы не можете голосовать в опросах
Вы не можете прикреплять файлы к сообщениям
Вы не можете скачивать файлы