(Classical, Piano, Organ) Jan Vayne & Martin Mans - Klaviervirtuozen in Parijs - 2009, FLAC (tracks+.cue), lossless


 

[Цитировать]

Jan Vayne & Martin Mans - Klaviervirtuozen in Parijs
Жанр: Classical, Piano, Organ
Страна-производитель диска: Netherlands
Год издания диска: 2009
Аудиокодек: FLAC
Тип рипа: tracks+.cue
Битрейт аудио: lossless
Продолжительность: 1:17:48
Источник: what.cd
Наличие сканов в содержимом раздачи: да
Треклист:
1. Klassieke kleuren op piano & orgel
2. Improvisatie: U zij de glorie
3. Improvisatie
4. Quatre Mains: Hongaarse dans no. 5 in a
5. Improvisatie
6. Jan Vayne op verzoek
7. Populair palet op piano & orgel
8. Improvisatie
9. Improvisatie
10. Quatre Mains: Petersburg Schlittenfahrt
Исполнители:
Jan Vayne, Martin Mans

Лог создания рипа

Exact Audio Copy V0.99 prebeta 5 from 4. May 2009
EAC extraction logfile from 12. September 2010, 14:56
Jan Vayne & Martin Mans / Klaviervirtuozen in Parijs
Used drive : HL-DT-STDVDRAM GSA-T40L Adapter: 3 ID: 0
Read mode : SecureUtilize accurate stream : YesDefeat audio cache : YesMake use of C2 pointers : No
Read offset correction : 667Overread into Lead-In and Lead-Out : NoFill up missing offset samples with silence : YesDelete leading and trailing silent blocks : NoNull samples used in CRC calculations : NoUsed interface : Native Win32 interface for Win NT & 2000Gap handling : Appended to previous track
Used output format : User Defined EncoderSelected bitrate : 1024 kBit/sQuality : HighAdd ID3 tag : NoCommand line compressor : C:\Program Files (x86)\Exact Audio Copy\FLAC\FLAC.EXEAdditional command line options : -6 -V -T "ARTIST=%a" -T "TITLE=%t" -T "ALBUM=%g" -T "DATE=%y" -T "TRACKNUMBER=%n" -T "GENRE=%m" -T "COMMENT=%e" %s -o %d
TOC of the extracted CD
Track | Start | Length | Start sector | End sector --------------------------------------------------------- 1 | 0:00.00 | 15:51.26 | 0 | 71350 2 | 15:51.26 | 3:49.12 | 71351 | 88537 3 | 19:40.38 | 4:04.21 | 88538 | 106858 4 | 23:44.59 | 2:03.52 | 106859 | 116135 5 | 25:48.36 | 9:17.57 | 116136 | 157967 6 | 35:06.18 | 8:13.74 | 157968 | 195016 7 | 43:20.17 | 9:38.50 | 195017 | 238416 8 | 52:58.67 | 15:31.59 | 238417 | 308300 9 | 68:30.51 | 6:53.49 | 308301 | 339324 10 | 75:24.25 | 2:23.71 | 339325 | 350120
Track 1
Filename C:\Users\Martijn\Desktop\EAC\Jan Vayne & Martin Mans - Klaviervirtuozen in Parijs (2009) [FLAC]\01. Klassieke kleuren op Piano & Orgel.wav
Pre-gap length 0:00:02.00
Peak level 97.7 % Track quality 99.9 % Test CRC 86BBA1DF Copy CRC 86BBA1DF Track not present in AccurateRip database Copy OK
Track 2
Filename C:\Users\Martijn\Desktop\EAC\Jan Vayne & Martin Mans - Klaviervirtuozen in Parijs (2009) [FLAC]\02. Improvisatie 'U Zij De Glorie'.wav
Peak level 97.7 % Track quality 100.0 % Test CRC 4AC9BF68 Copy CRC 4AC9BF68 Track not present in AccurateRip database Copy OK
Track 3
Filename C:\Users\Martijn\Desktop\EAC\Jan Vayne & Martin Mans - Klaviervirtuozen in Parijs (2009) [FLAC]\03. Improvisatie Door Jan Vayne.wav
Peak level 97.7 % Track quality 100.0 % Test CRC 678E8C63 Copy CRC 678E8C63 Track not present in AccurateRip database Copy OK
Track 4
Filename C:\Users\Martijn\Desktop\EAC\Jan Vayne & Martin Mans - Klaviervirtuozen in Parijs (2009) [FLAC]\04. Quatre Mains 'Hongaarse Dans No 5' In A.wav
Peak level 97.7 % Track quality 100.0 % Test CRC 6A490D66 Copy CRC 6A490D66 Track not present in AccurateRip database Copy OK
Track 5
Filename C:\Users\Martijn\Desktop\EAC\Jan Vayne & Martin Mans - Klaviervirtuozen in Parijs (2009) [FLAC]\05. Improvisatie Door Martin Mans.wav
Peak level 97.7 % Track quality 100.0 % Test CRC 53F03F23 Copy CRC 53F03F23 Track not present in AccurateRip database Copy OK
Track 6
Filename C:\Users\Martijn\Desktop\EAC\Jan Vayne & Martin Mans - Klaviervirtuozen in Parijs (2009) [FLAC]\06. Jan Vayne Op Verzoek.wav
Peak level 97.7 % Track quality 100.0 % Test CRC 8D5B3F9E Copy CRC 8D5B3F9E Track not present in AccurateRip database Copy OK
Track 7
Filename C:\Users\Martijn\Desktop\EAC\Jan Vayne & Martin Mans - Klaviervirtuozen in Parijs (2009) [FLAC]\07. Populair Palet Op Piano & Orgel.wav
Peak level 97.7 % Track quality 100.0 % Test CRC 29B793C3 Copy CRC 29B793C3 Track not present in AccurateRip database Copy OK
Track 8
Filename C:\Users\Martijn\Desktop\EAC\Jan Vayne & Martin Mans - Klaviervirtuozen in Parijs (2009) [FLAC]\08. Improvisatie Door Martin Mans.wav
Peak level 97.7 % Track quality 99.9 % Test CRC C50C3711 Copy CRC C50C3711 Track not present in AccurateRip database Copy OK
Track 9
Filename C:\Users\Martijn\Desktop\EAC\Jan Vayne & Martin Mans - Klaviervirtuozen in Parijs (2009) [FLAC]\09. Improvisatie Door Jan Vayne.wav
Peak level 97.7 % Track quality 100.0 % Test CRC 0589E0B3 Copy CRC 0589E0B3 Track not present in AccurateRip database Copy OK
Track 10
Filename C:\Users\Martijn\Desktop\EAC\Jan Vayne & Martin Mans - Klaviervirtuozen in Parijs (2009) [FLAC]\10. Quatre Mains 'Petersburger schlittenfahrt'.wav
Peak level 97.7 % Track quality 100.0 % Test CRC 8BD88DBC Copy CRC 8BD88DBC Track not present in AccurateRip database Copy OK
None of the tracks are present in the AccurateRip database
No errors occurred
End of status report

Содержание индексной карты (.CUE)

REM GENRE InstrumentalREM DATE 2009REM DISCID 71123C0AREM COMMENT "ExactAudioCopy v0.99pb5"PERFORMER "Jan Vayne & Martin Mans"TITLE "Klaviervirtuozen in Parijs"FILE "01. Klassieke kleuren op Piano & Orgel.wav" WAVE TRACK 01 AUDIO TITLE "01. Klassieke kleuren op Piano & Orgel" PERFORMER "Jan Vayne & Martin Mans" INDEX 01 00:00:00FILE "02. Improvisatie 'U Zij De Glorie'.wav" WAVE TRACK 02 AUDIO TITLE "02. Improvisatie 'U Zij De Glorie'" PERFORMER "Jan Vayne & Martin Mans" INDEX 01 00:00:00FILE "03. Improvisatie Door Jan Vayne.wav" WAVE TRACK 03 AUDIO TITLE "03. Improvisatie Door Jan Vayne" PERFORMER "Jan Vayne & Martin Mans" INDEX 01 00:00:00FILE "04. Quatre Mains 'Hongaarse Dans No 5' In A.wav" WAVE TRACK 04 AUDIO TITLE "04. Quatre Mains 'Hongaarse Dans No 5' In A" PERFORMER "Jan Vayne & Martin Mans" INDEX 01 00:00:00FILE "05. Improvisatie Door Martin Mans.wav" WAVE TRACK 05 AUDIO TITLE "05. Improvisatie Door Martin Mans" PERFORMER "Jan Vayne & Martin Mans" INDEX 01 00:00:00FILE "06. Jan Vayne Op Verzoek.wav" WAVE TRACK 06 AUDIO TITLE "06. Jan Vayne Op Verzoek" PERFORMER "Jan Vayne & Martin Mans" INDEX 01 00:00:00FILE "07. Populair Palet Op Piano & Orgel.wav" WAVE TRACK 07 AUDIO TITLE "07. Populair Palet Op Piano & Orgel" PERFORMER "Jan Vayne & Martin Mans" INDEX 01 00:00:00FILE "08. Improvisatie Door Martin Mans.wav" WAVE TRACK 08 AUDIO TITLE "08. Improvisatie Door Martin Mans" PERFORMER "Jan Vayne & Martin Mans" INDEX 01 00:00:00FILE "09. Improvisatie Door Jan Vayne.wav" WAVE TRACK 09 AUDIO TITLE "09. Improvisatie Door Jan Vayne" PERFORMER "Jan Vayne & Martin Mans" INDEX 01 00:00:00FILE "10. Quatre Mains 'Petersburger schlittenfahrt'.wav" WAVE TRACK 10 AUDIO TITLE "10. Quatre Mains 'Petersburger schlittenfahrt'" PERFORMER "Jan Vayne & Martin Mans" INDEX 01 00:00:00



Показать сообщения:    

Текущее время: 07-Дек 23:17

Часовой пояс: UTC + 3


Вы не можете начинать темы
Вы не можете отвечать на сообщения
Вы не можете редактировать свои сообщения
Вы не можете удалять свои сообщения
Вы не можете голосовать в опросах
Вы не можете прикреплять файлы к сообщениям
Вы не можете скачивать файлы