(Symphonic Rock) Vitamin String Quartet - Enigmatic: The String Quartet Tribute to Radiohead - 2003, FLAC (tracks+.cue) lossless


 

[Цитировать]

Vitamin String Quartet / Enigmatic: The String Quartet Tribute to Radiohead Жанр: Symphonic Rock
Страна-производитель диска: US
Год издания диска: 2003
Издатель (лейбл): Vitamin Records
Аудиокодек: FLAC
Тип рипа: tracks+.cue
Битрейт аудио: lossless
Продолжительность: 45:07
Источник: скачано с what.cd
Наличие сканов в содержимом раздачи: нет
Треклист:
01. Motion Picture Soundtrack (02:42)
02. You and Whose Army? (02:50)
03. My Iron Lung (04:17)
04. (Nice Dream) (03:23)
05. Permanent Daylight (02:33)
06. The National Anthem (05:07)
07. Idioteque (04:41)
08. Street Spirit (Fade Out) (04:00)
09. Just (03:20)
10. Morning Bell/Amnesiac (03:50)
11. Palo Alto (03:29)
12. There There (04:55)-

Лог создания рипа

Exact Audio Copy V0.99 prebeta 5 from 4. May 2009
EAC extraction logfile from 4. September 2009, 18:14
The String Quartet Tribute to Radiohead / Enigmatic
Used drive : HL-DT-STDVDRAM GSA-4084N Adapter: 0 ID: 0
Read mode : SecureUtilize accurate stream : YesDefeat audio cache : YesMake use of C2 pointers : No
Read offset correction : 667Overread into Lead-In and Lead-Out : NoFill up missing offset samples with silence : YesDelete leading and trailing silent blocks : NoNull samples used in CRC calculations : YesUsed interface : Native Win32 interface for Win NT & 2000Gap handling : Appended to previous track
Used output format : User Defined EncoderSelected bitrate : 128 kBit/sQuality : HighAdd ID3 tag : NoCommand line compressor : C:\Program Files\Exact Audio Copy\Flac\flac.exeAdditional command line options : -V -8 -T "artist=%a" -T "title=%t" -T "album=%g" -T "date=%y" -T "tracknumber=%n" -T "genre=%m" %s
TOC of the extracted CD
Track | Start | Length | Start sector | End sector --------------------------------------------------------- 1 | 0:00.00 | 2:42.51 | 0 | 12200 2 | 2:42.51 | 2:50.64 | 12201 | 25014 3 | 5:33.40 | 4:17.52 | 25015 | 44341 4 | 9:51.17 | 3:23.24 | 44342 | 59590 5 | 13:14.41 | 2:33.50 | 59591 | 71115 6 | 15:48.16 | 5:07.00 | 71116 | 94140 7 | 20:55.16 | 4:41.10 | 94141 | 115225 8 | 25:36.26 | 4:00.16 | 115226 | 133241 9 | 29:36.42 | 3:20.17 | 133242 | 148258 10 | 32:56.59 | 3:50.17 | 148259 | 165525 11 | 36:47.01 | 3:29.68 | 165526 | 181268 12 | 40:16.69 | 4:55.32 | 181269 | 203425
Track 1
Filename C:\EAC Rips\The String Quartet Tribute to Radiohead - 2003 - Enigmatic\01 - Motion Picture Soundtrack.wav
Pre-gap length 0:00:02.00
Peak level 59.4 % Track quality 99.9 % Test CRC 0FB18FB7 Copy CRC 0FB18FB7 Accurately ripped (confidence 4) [72C6E532] Copy OK
Track 2
Filename C:\EAC Rips\The String Quartet Tribute to Radiohead - 2003 - Enigmatic\02 - You and Whose Army .wav
Pre-gap length 0:00:00.89
Peak level 87.9 % Track quality 100.0 % Test CRC ECC9E734 Copy CRC ECC9E734 Accurately ripped (confidence 3) [5A3A050E] Copy OK
Track 3
Filename C:\EAC Rips\The String Quartet Tribute to Radiohead - 2003 - Enigmatic\03 - My Iron Lung.wav
Pre-gap length 0:00:00.44
Peak level 99.7 % Track quality 99.9 % Test CRC 2B9C173E Copy CRC 2B9C173E Accurately ripped (confidence 4) [92F8E9ED] Copy OK
Track 4
Filename C:\EAC Rips\The String Quartet Tribute to Radiohead - 2003 - Enigmatic\04 - (Nice Dream).wav
Pre-gap length 0:00:00.34
Peak level 99.7 % Track quality 100.0 % Test CRC 0B227BE1 Copy CRC 0B227BE1 Accurately ripped (confidence 4) [499B3FCF] Copy OK
Track 5
Filename C:\EAC Rips\The String Quartet Tribute to Radiohead - 2003 - Enigmatic\05 - Permanent Daylight.wav
Pre-gap length 0:00:00.50
Peak level 71.0 % Track quality 100.0 % Test CRC 730D94FF Copy CRC 730D94FF Accurately ripped (confidence 4) [B69053F4] Copy OK
Track 6
Filename C:\EAC Rips\The String Quartet Tribute to Radiohead - 2003 - Enigmatic\06 - The National Anthem.wav
Pre-gap length 0:00:00.48
Peak level 99.7 % Track quality 100.0 % Test CRC 7F16B467 Copy CRC 7F16B467 Accurately ripped (confidence 4) [77E55DD1] Copy OK
Track 7
Filename C:\EAC Rips\The String Quartet Tribute to Radiohead - 2003 - Enigmatic\07 - Idioteque.wav
Pre-gap length 0:00:00.26
Peak level 96.5 % Track quality 100.0 % Test CRC 63F6952B Copy CRC 63F6952B Accurately ripped (confidence 3) [6AA8F406] Copy OK
Track 8
Filename C:\EAC Rips\The String Quartet Tribute to Radiohead - 2003 - Enigmatic\08 - Street Spirit (Fade Out).wav
Peak level 81.3 % Track quality 100.0 % Test CRC 25280847 Copy CRC 25280847 Accurately ripped (confidence 4) [37FA8B07] Copy OK
Track 9
Filename C:\EAC Rips\The String Quartet Tribute to Radiohead - 2003 - Enigmatic\09 - Just.wav
Pre-gap length 0:00:00.46
Peak level 99.7 % Track quality 99.9 % Test CRC 98415C32 Copy CRC 98415C32 Accurately ripped (confidence 4) [EE64EB59] Copy OK
Track 10
Filename C:\EAC Rips\The String Quartet Tribute to Radiohead - 2003 - Enigmatic\10 - Morning Bell,Amnesiac.wav
Pre-gap length 0:00:00.97
Peak level 74.1 % Track quality 100.0 % Test CRC 258999FD Copy CRC 258999FD Accurately ripped (confidence 4) [B9139D55] Copy OK
Track 11
Filename C:\EAC Rips\The String Quartet Tribute to Radiohead - 2003 - Enigmatic\11 - Palo Alto.wav
Pre-gap length 0:00:00.30
Peak level 99.6 % Track quality 100.0 % Test CRC 485435EF Copy CRC 485435EF Accurately ripped (confidence 4) [B1C0453E] Copy OK
Track 12
Filename C:\EAC Rips\The String Quartet Tribute to Radiohead - 2003 - Enigmatic\12 - There There.wav
Pre-gap length 0:00:02.96
Peak level 85.3 % Track quality 100.0 % Test CRC 49B89001 Copy CRC 49B89001 Accurately ripped (confidence 3) [B84CD648] Copy OK
All tracks accurately ripped
No errors occurred
End of status report
------------------------------------------------------------

Содержание индексной карты (.CUE)

REM GENRE ClassicalREM DATE 2003REM DISCID B90A980CREM COMMENT "ExactAudioCopy v0.99pb5"PERFORMER "The String Quartet Tribute to Radiohead"TITLE "Enigmatic"FILE "The String Quartet Tribute to Radiohead - 2003 - Enigmatic\01 - Motion Picture Soundtrack.wav" WAVE TRACK 01 AUDIO TITLE "Motion Picture Soundtrack" PERFORMER "The String Quartet Tribute to Radiohead" INDEX 01 00:00:00 TRACK 02 AUDIO TITLE "You and Whose Army?" PERFORMER "The String Quartet Tribute to Radiohead" INDEX 00 02:41:59FILE "The String Quartet Tribute to Radiohead - 2003 - Enigmatic\02 - You and Whose Army .wav" WAVE INDEX 01 00:00:00 TRACK 03 AUDIO TITLE "My Iron Lung" PERFORMER "The String Quartet Tribute to Radiohead" INDEX 00 02:50:31FILE "The String Quartet Tribute to Radiohead - 2003 - Enigmatic\03 - My Iron Lung.wav" WAVE INDEX 01 00:00:00 TRACK 04 AUDIO TITLE "(Nice Dream)" PERFORMER "The String Quartet Tribute to Radiohead" INDEX 00 04:17:26FILE "The String Quartet Tribute to Radiohead - 2003 - Enigmatic\04 - (Nice Dream).wav" WAVE INDEX 01 00:00:00 TRACK 05 AUDIO TITLE "Permanent Daylight" PERFORMER "The String Quartet Tribute to Radiohead" INDEX 00 03:22:61FILE "The String Quartet Tribute to Radiohead - 2003 - Enigmatic\05 - Permanent Daylight.wav" WAVE INDEX 01 00:00:00 TRACK 06 AUDIO TITLE "The National Anthem" PERFORMER "The String Quartet Tribute to Radiohead" INDEX 00 02:33:14FILE "The String Quartet Tribute to Radiohead - 2003 - Enigmatic\06 - The National Anthem.wav" WAVE INDEX 01 00:00:00 TRACK 07 AUDIO TITLE "Idioteque" PERFORMER "The String Quartet Tribute to Radiohead" INDEX 00 05:06:55FILE "The String Quartet Tribute to Radiohead - 2003 - Enigmatic\07 - Idioteque.wav" WAVE INDEX 01 00:00:00FILE "The String Quartet Tribute to Radiohead - 2003 - Enigmatic\08 - Street Spirit (Fade Out).wav" WAVE TRACK 08 AUDIO TITLE "Street Spirit (Fade Out)" PERFORMER "The String Quartet Tribute to Radiohead" INDEX 01 00:00:00 TRACK 09 AUDIO TITLE "Just" PERFORMER "The String Quartet Tribute to Radiohead" INDEX 00 03:59:56FILE "The String Quartet Tribute to Radiohead - 2003 - Enigmatic\09 - Just.wav" WAVE INDEX 01 00:00:00 TRACK 10 AUDIO TITLE "Morning Bell/Amnesiac" PERFORMER "The String Quartet Tribute to Radiohead" INDEX 00 03:19:19FILE "The String Quartet Tribute to Radiohead - 2003 - Enigmatic\10 - Morning Bell,Amnesiac.wav" WAVE INDEX 01 00:00:00 TRACK 11 AUDIO TITLE "Palo Alto" PERFORMER "The String Quartet Tribute to Radiohead" INDEX 00 03:49:69FILE "The String Quartet Tribute to Radiohead - 2003 - Enigmatic\11 - Palo Alto.wav" WAVE INDEX 01 00:00:00 TRACK 12 AUDIO TITLE "There There" PERFORMER "The String Quartet Tribute to Radiohead" INDEX 00 03:26:71FILE "The String Quartet Tribute to Radiohead - 2003 - Enigmatic\12 - There There.wav" WAVE INDEX 01 00:00:00



Показать сообщения:    

Текущее время: 09-Дек 22:17

Часовой пояс: UTC + 3


Вы не можете начинать темы
Вы не можете отвечать на сообщения
Вы не можете редактировать свои сообщения
Вы не можете удалять свои сообщения
Вы не можете голосовать в опросах
Вы не можете прикреплять файлы к сообщениям
Вы не можете скачивать файлы