(Symphonic Rock) Vitamin String Quartet - Strung Out on OK Computer - The String Quartet Tribute To Radiohead - 2001, FLAC (tracks+.cue) lossless


 

[Цитировать]

Vitamin String Quartet / Strung Out on OK Computer - The String Quartet Tribute To Radiohead
Жанр: Symphonic Rock
Страна-производитель диска: US
Год издания диска: 2001
Издатель (лейбл): Vitamin Records
Аудиокодек: FLAC
Тип рипа: tracks+.cue
Битрейт аудио: lossless
Продолжительность: 49:12
Источник: скачано с what.cd
Наличие сканов в содержимом раздачи: нет
Треклист:
01. Airbag (04:38)
02. Paranoid Android (06:19)
03. Subterranean Homesick Alien (04:28)
04. Exit Music (For a Film) (04:29)
05. Let Down (04:20)
06. Karma Police (04:17)
07. Fitter Happier (01:21)
08. Electioneering (03:14)
09. Climbing up the Walls (04:06)
10. No Surprises (03:57)
11. Lucky (03:59)
12. The Tourist (04:03)-

Лог создания рипа

Exact Audio Copy V0.99 prebeta 4 from 23. January 2008
EAC extraction logfile from 2. July 2009, 19:20
Vitamin String Quartet / Strung Out on OK Computer: The String Tribute To Radiohead
Used drive : HL-DT-STDVDRAM GH20NS10 Adapter: 4 ID: 0
Read mode : SecureUtilize accurate stream : YesDefeat audio cache : YesMake use of C2 pointers : No
Read offset correction : 667Overread into Lead-In and Lead-Out : NoFill up missing offset samples with silence : YesDelete leading and trailing silent blocks : NoNull samples used in CRC calculations : YesUsed interface : Native Win32 interface for Win NT & 2000Gap handling : Appended to previous track
Used output format : User Defined EncoderSelected bitrate : 320 kBit/sQuality : HighAdd ID3 tag : NoCommand line compressor : C:\Program Files\Exact Audio Copy\FLAC\FLAC.EXEAdditional command line options : -V -8 -T "artist=%a" -T "title=%t" -T "album=%g" -T "date=%y" -T "tracknumber=%n" -T "genre=%m" %s
TOC of the extracted CD
Track | Start | Length | Start sector | End sector --------------------------------------------------------- 1 | 0:00.01 | 4:38.02 | 1 | 20852 2 | 4:38.03 | 6:19.47 | 20853 | 49324 3 | 10:57.50 | 4:28.34 | 49325 | 69458 4 | 15:26.09 | 4:29.68 | 69459 | 89701 5 | 19:56.02 | 4:20.72 | 89702 | 109273 6 | 24:16.74 | 4:17.54 | 109274 | 128602 7 | 28:34.53 | 1:21.64 | 128603 | 134741 8 | 29:56.42 | 3:14.36 | 134742 | 149327 9 | 33:11.03 | 4:06.10 | 149328 | 167787 10 | 37:17.13 | 3:57.31 | 167788 | 185593 11 | 41:14.44 | 3:59.65 | 185594 | 203583 12 | 45:14.34 | 4:03.65 | 203584 | 221873
Track 1
Filename C:\EACrips\Vitamin String Quartet - 2001 - Strung Out on OK Computer- The String Tribute To Radiohead\01 - Airbag.wav
Pre-gap length 0:00:02.01
Peak level 95.6 % Track quality 100.0 % Test CRC FF540435 Copy CRC FF540435 Accurately ripped (confidence 2) [38286CE0] Copy OK
Track 2
Filename C:\EACrips\Vitamin String Quartet - 2001 - Strung Out on OK Computer- The String Tribute To Radiohead\02 - Paranoid Android.wav
Peak level 99.7 % Track quality 100.0 % Test CRC 7A0E021C Copy CRC 7A0E021C Accurately ripped (confidence 2) [9A4FA887] Copy OK
Track 3
Filename C:\EACrips\Vitamin String Quartet - 2001 - Strung Out on OK Computer- The String Tribute To Radiohead\03 - Subterranean Homesick Alien.wav
Pre-gap length 0:00:00.26
Peak level 99.7 % Track quality 100.0 % Test CRC D21448E5 Copy CRC D21448E5 Accurately ripped (confidence 2) [C784CBF2] Copy OK
Track 4
Filename C:\EACrips\Vitamin String Quartet - 2001 - Strung Out on OK Computer- The String Tribute To Radiohead\04 - Exit Music (For a Film).wav
Pre-gap length 0:00:02.16
Peak level 85.6 % Track quality 100.0 % Test CRC B24023A7 Copy CRC B24023A7 Accurately ripped (confidence 2) [9CD5F742] Copy OK
Track 5
Filename C:\EACrips\Vitamin String Quartet - 2001 - Strung Out on OK Computer- The String Tribute To Radiohead\05 - Let Down.wav
Peak level 98.9 % Track quality 100.0 % Test CRC 2AB04960 Copy CRC 2AB04960 Accurately ripped (confidence 2) [42CB36E8] Copy OK
Track 6
Filename C:\EACrips\Vitamin String Quartet - 2001 - Strung Out on OK Computer- The String Tribute To Radiohead\06 - Karma Police.wav
Pre-gap length 0:00:00.93
Peak level 90.3 % Track quality 100.0 % Test CRC 4F841160 Copy CRC 4F841160 Accurately ripped (confidence 2) [9B6C185C] Copy OK
Track 7
Filename C:\EACrips\Vitamin String Quartet - 2001 - Strung Out on OK Computer- The String Tribute To Radiohead\07 - Fitter Happier.wav
Peak level 73.4 % Track quality 100.0 % Test CRC DC5DC527 Copy CRC DC5DC527 Accurately ripped (confidence 2) [71415B9A] Copy OK
Track 8
Filename C:\EACrips\Vitamin String Quartet - 2001 - Strung Out on OK Computer- The String Tribute To Radiohead\08 - Electioneering.wav
Pre-gap length 0:00:00.28
Peak level 99.7 % Track quality 100.0 % Test CRC E43C9AE7 Copy CRC E43C9AE7 Accurately ripped (confidence 2) [844E2A95] Copy OK
Track 9
Filename C:\EACrips\Vitamin String Quartet - 2001 - Strung Out on OK Computer- The String Tribute To Radiohead\09 - Climbing up the Walls.wav
Pre-gap length 0:00:00.26
Peak level 85.5 % Track quality 100.0 % Test CRC C4C4F778 Copy CRC C4C4F778 Accurately ripped (confidence 2) [4D3DA384] Copy OK
Track 10
Filename C:\EACrips\Vitamin String Quartet - 2001 - Strung Out on OK Computer- The String Tribute To Radiohead\10 - No Surprises.wav
Peak level 99.7 % Track quality 99.9 % Test CRC D556A478 Copy CRC D556A478 Accurately ripped (confidence 2) [735E5518] Copy OK
Track 11
Filename C:\EACrips\Vitamin String Quartet - 2001 - Strung Out on OK Computer- The String Tribute To Radiohead\11 - Lucky.wav
Pre-gap length 0:00:01.33
Peak level 99.7 % Track quality 100.0 % Test CRC 50FBC967 Copy CRC 50FBC967 Accurately ripped (confidence 2) [5301A77F] Copy OK
Track 12
Filename C:\EACrips\Vitamin String Quartet - 2001 - Strung Out on OK Computer- The String Tribute To Radiohead\12 - The Tourist.wav
Pre-gap length 0:00:03.32
Peak level 98.8 % Track quality 100.0 % Test CRC 2709BC16 Copy CRC 2709BC16 Accurately ripped (confidence 2) [3BD90710] Copy OK
All tracks accurately ripped
No errors occurred
End of status report

Содержание индексной карты (.CUE)

REM GENRE "Symphonic Rock"REM DATE 2001REM DISCID C90B8E0CREM COMMENT "ExactAudioCopy v0.99pb4"FILE "Vitamin String Quartet - 2001 - Strung Out on OK Computer- The String Tribute To Radiohead\01 - Airbag.wav" WAVE TRACK 01 AUDIO PREGAP 00:00:01 INDEX 01 00:00:00FILE "Vitamin String Quartet - 2001 - Strung Out on OK Computer- The String Tribute To Radiohead\02 - Paranoid Android.wav" WAVE TRACK 02 AUDIO INDEX 01 00:00:00 TRACK 03 AUDIO INDEX 00 06:19:27FILE "Vitamin String Quartet - 2001 - Strung Out on OK Computer- The String Tribute To Radiohead\03 - Subterranean Homesick Alien.wav" WAVE INDEX 01 00:00:00 TRACK 04 AUDIO INDEX 00 04:26:22FILE "Vitamin String Quartet - 2001 - Strung Out on OK Computer- The String Tribute To Radiohead\04 - Exit Music (For a Film).wav" WAVE INDEX 01 00:00:00FILE "Vitamin String Quartet - 2001 - Strung Out on OK Computer- The String Tribute To Radiohead\05 - Let Down.wav" WAVE TRACK 05 AUDIO INDEX 01 00:00:00 TRACK 06 AUDIO INDEX 00 04:20:02FILE "Vitamin String Quartet - 2001 - Strung Out on OK Computer- The String Tribute To Radiohead\06 - Karma Police.wav" WAVE INDEX 01 00:00:00FILE "Vitamin String Quartet - 2001 - Strung Out on OK Computer- The String Tribute To Radiohead\07 - Fitter Happier.wav" WAVE TRACK 07 AUDIO INDEX 01 00:00:00 TRACK 08 AUDIO INDEX 00 01:21:43FILE "Vitamin String Quartet - 2001 - Strung Out on OK Computer- The String Tribute To Radiohead\08 - Electioneering.wav" WAVE INDEX 01 00:00:00 TRACK 09 AUDIO INDEX 00 03:14:16FILE "Vitamin String Quartet - 2001 - Strung Out on OK Computer- The String Tribute To Radiohead\09 - Climbing up the Walls.wav" WAVE INDEX 01 00:00:00FILE "Vitamin String Quartet - 2001 - Strung Out on OK Computer- The String Tribute To Radiohead\10 - No Surprises.wav" WAVE TRACK 10 AUDIO INDEX 01 00:00:00 TRACK 11 AUDIO INDEX 00 03:56:06FILE "Vitamin String Quartet - 2001 - Strung Out on OK Computer- The String Tribute To Radiohead\11 - Lucky.wav" WAVE INDEX 01 00:00:00 TRACK 12 AUDIO INDEX 00 03:56:41FILE "Vitamin String Quartet - 2001 - Strung Out on OK Computer- The String Tribute To Radiohead\12 - The Tourist.wav" WAVE INDEX 01 00:00:00



Показать сообщения:    

Текущее время: 03-Дек 16:46

Часовой пояс: UTC + 3


Вы не можете начинать темы
Вы не можете отвечать на сообщения
Вы не можете редактировать свои сообщения
Вы не можете удалять свои сообщения
Вы не можете голосовать в опросах
Вы не можете прикреплять файлы к сообщениям
Вы не можете скачивать файлы