(Classical) Vanessa-Mae - China Girl - The Classical Album 2 - 1997, FLAC (tracks+.cue), lossless


 

[Цитировать]

Vanessa-Mae - China Girl - The Classical Album 2
Жанр: Classical
Год выпуска диска: 1997
Производитель диска: Holland
Издатель (лейбл): EMI
Номер по каталогу: 7243 5 56483 2 7
Аудио кодек: FLAC
Тип рипа: tracks+.cue
Битрейт аудио: lossless
Источник (релизер): what (alsaan)
Продолжительность: 00:44:37
Наличие сканов в содержимом раздачи: да
Треклист:
01 Butterfly Lovers Violin Concerto Act I 10:07
02 Butterfly Lovers Violin Concerto Act II 10:45
03 Butterfly Lovers Violin Concerto Act III 05:44
04 Violin Fantasy on Puccini's Turandot 11:25
05 Happy Valley 06:34

Лог создания рипа

Exact Audio Copy V0.99 prebeta 4 from 23. January 2008
EAC extraction logfile from 2. May 2009, 23:02
Vanessa-Mae / China Girl The Classical Album 2
Used drive : PLEXTOR CD-R PREMIUM2 Adapter: 1 ID: 1
Read mode : SecureUtilize accurate stream : YesDefeat audio cache : YesMake use of C2 pointers : No
Read offset correction : 30Overread into Lead-In and Lead-Out : YesFill up missing offset samples with silence : YesDelete leading and trailing silent blocks : NoNull samples used in CRC calculations : YesUsed interface : Installed external ASPI interfaceGap handling : Appended to previous track
Used output format : User Defined EncoderSelected bitrate : 32 kBit/sQuality : HighAdd ID3 tag : NoCommand line compressor : C:\Programmi\FLAC\flac.exeAdditional command line options : -8 -V -T "ARTIST=%a" -T "TITLE=%t" -T "ALBUM=%g" -T "DATE=%y" -T "TRACKNUMBER=%n" -T "GENRE=%m" -T "COMMENT=EAC FLAC -8" %s
TOC of the extracted CD
Track | Start | Length | Start sector | End sector --------------------------------------------------------- 1 | 0:00.32 | 10:07.55 | 32 | 45611 2 | 10:08.12 | 10:45.03 | 45612 | 93989 3 | 20:53.15 | 5:53.55 | 93990 | 120519 4 | 26:46.70 | 11:36.55 | 120520 | 172774 5 | 38:23.50 | 6:34.52 | 172775 | 202376
Track 1
Filename D:\My Rip\01 - Butterfly Lovers Violin Concerto Act I.wav
Pre-gap length 0:00:02.42
Peak level 42.0 % Track quality 100.0 % Test CRC 57E4F1F0 Copy CRC 57E4F1F0 Accurately ripped (confidence 9) [AE0D0EBC] Copy OK
Track 2
Filename D:\My Rip\02 - Butterfly Lovers Violin Concerto Act II.wav
Pre-gap length 0:00:00.02
Peak level 96.0 % Track quality 100.0 % Test CRC 2F8043E9 Copy CRC 2F8043E9 Accurately ripped (confidence 9) [9CE0A318] Copy OK
Track 3
Filename D:\My Rip\03 - Butterfly Lovers Violin Concerto Act III.wav
Pre-gap length 0:00:00.04
Peak level 69.2 % Track quality 100.0 % Test CRC 5B4E036D Copy CRC 5B4E036D Accurately ripped (confidence 9) [242CE6DE] Copy OK
Track 4
Filename D:\My Rip\04 - Violin Fantasy on Puccini's Turandot.wav
Pre-gap length 0:00:08.80
Peak level 81.8 % Track quality 100.0 % Test CRC ACBB0959 Copy CRC ACBB0959 Accurately ripped (confidence 9) [78C8FA11] Copy OK
Track 5
Filename D:\My Rip\05 - Happy Valley.wav
Pre-gap length 0:00:11.60
Peak level 96.6 % Track quality 100.0 % Test CRC 179AE78F Copy CRC 179AE78F Accurately ripped (confidence 8) [6E7304FF] Copy OK
All tracks accurately ripped
No errors occurred
End of status report

Содержание индексной карты (.CUE)

REM GENRE ClassicalREM DATE 1997REM DISCID 2F0A8A05REM COMMENT "ExactAudioCopy v0.99pb4"PERFORMER "Vanessa-Mae"TITLE "China Girl The Classical Album 2"FILE "01 - Butterfly Lovers Violin Concerto Act I.wav" WAVE TRACK 01 AUDIO TITLE "Butterfly Lovers Violin Concerto Act I" PERFORMER "Vanessa-Mae" PREGAP 00:00:32 INDEX 01 00:00:00 TRACK 02 AUDIO TITLE "Butterfly Lovers Violin Concerto Act II" PERFORMER "Vanessa-Mae" INDEX 00 10:07:53FILE "02 - Butterfly Lovers Violin Concerto Act II.wav" WAVE INDEX 01 00:00:00 TRACK 03 AUDIO TITLE "Butterfly Lovers Violin Concerto Act III" PERFORMER "Vanessa-Mae" INDEX 00 10:45:00FILE "03 - Butterfly Lovers Violin Concerto Act III.wav" WAVE INDEX 01 00:00:00 TRACK 04 AUDIO TITLE "Violin Fantasy on Puccini's Turandot" PERFORMER "Vanessa-Mae" INDEX 00 05:44:70FILE "04 - Violin Fantasy on Puccini's Turandot.wav" WAVE INDEX 01 00:00:00 TRACK 05 AUDIO TITLE "Happy Valley" PERFORMER "Vanessa-Mae" INDEX 00 11:25:10FILE "05 - Happy Valley.wav" WAVE INDEX 01 00:00:00

Лог проверки качества

PERFORMER: auCDtect Task Manager, ver. 1.5.1RC4 build 1.5.1.5Copyright (c) 2008-2010 y-soft. All rights reservedhttp://y-soft.org
ANALYZER: auCDtect: CD records authenticity detector, version 0.8.2Copyright (c) 2004 Oleg Berngardt. All rights reserved.Copyright (c) 2004 Alexander Djourik. All rights reserved.
FILE: 05 - Happy Valley.flac Size: 41588823 Hash: 2D7B808A14E66CDF0CEE9C28DB37788C Accuracy: -m0 Conclusion: CDDA 100% Signature: CEBAC9A17F4D64F2FF5C58D1065A8347A888BDE1FILE: 04 - Violin Fantasy on Puccini's Turandot.flac Size: 50804253 Hash: D907C5661AF832F843F49B48F0F93256 Accuracy: -m0 Conclusion: CDDA 62% Signature: 56C8219B48782CFC185C73F3B597EE8F054DAFADFILE: 03 - Butterfly Lovers Violin Concerto Act III.flac Size: 24044214 Hash: FE5893758153DD9853CAF5B35C4ED30D Accuracy: -m0 Conclusion: CDDA 100% Signature: B0398EC7E03F1053B941CACAC01CF06ECFAE7145FILE: 02 - Butterfly Lovers Violin Concerto Act II.flac Size: 50822071 Hash: B2FB390F7E21FF29012B62872D068D98 Accuracy: -m0 Conclusion: CDDA 99% Signature: F43052A3E9509955B3FF65FBE8AC70183F9BC6DCFILE: 01 - Butterfly Lovers Violin Concerto Act I.flac Size: 41808838 Hash: AE433080479A858FF16FBBE19F0C954F Accuracy: -m0 Conclusion: CDDA 99% Signature: 9610AC5910653441A676EA7A96071271B99824F0



Показать сообщения:    

Текущее время: 05-Дек 05:31

Часовой пояс: UTC + 3


Вы не можете начинать темы
Вы не можете отвечать на сообщения
Вы не можете редактировать свои сообщения
Вы не можете удалять свои сообщения
Вы не можете голосовать в опросах
Вы не можете прикреплять файлы к сообщениям
Вы не можете скачивать файлы