(instrumental, strings) String Tribute Players - String Tribute To Lamb Of God - 2009, FLAC (tracks+.cue), lossless


 

[Цитировать]

String Tribute Players - String Tribute To Lamb Of God
Жанр: instrumental, strings
Год выпуска диска: 2009
Страна:
Лейбл: CC Entertainment
Номер по каталогу:CCEC9051.2
Продолжительность: 36:08
Аудио кодек: FLAC
Тип рипа: tracks+.cue
Битрейт аудио: lossless
Источник: danomac
Сканы: Нет

1. Redneck
2. Walk with Me in Hell
3. Laid to Rest
4. Black Label
5. Ruin
6. Again We Rise
7. 11th Hour
8. Vigil
9. Blacken the Cursed Sun
10. Contractor

log EAC

Exact Audio Copy V1.0 beta 3 from 29. August 2011
EAC extraction logfile from 27. January 2012, 17:30
String Tribute Players / String Tribute to Lamb of God
Used drive : TSSTcorpCDDVDW SH-S203B Adapter: 2 ID: 0
Read mode : Secure
Utilize accurate stream : Yes
Defeat audio cache : Yes
Make use of C2 pointers : No
Read offset correction : 6
Overread into Lead-In and Lead-Out : No
Fill up missing offset samples with silence : Yes
Delete leading and trailing silent blocks : No
Null samples used in CRC calculations : Yes
Used interface : Native Win32 interface for Win NT & 2000
Gap handling : Appended to previous track
Used output format : User Defined Encoder
Selected bitrate : 1024 kBit/s
Quality : High
Add ID3 tag : No
Command line compressor : C:\Program Files (x86)\Exact Audio Copy\Flac\flac.exe
Additional command line options : -8 -V -T "ARTIST=%artist%" -T "TITLE=%title%" -T "ALBUM=%albumtitle%" -T "DATE=%year%" -T "TRACKNUMBER=%tracknr%" -T "GENRE=%genre%" -T "PERFORMER=%albuminterpret%" -T "COMPOSER=%composer%" %haslyrics%--tag-from-file=LYRICS="%lyricsfile%"%haslyrics% -T "ALBUMARTIST=%albumartist%" -T "DISCNUMBER=%cdnumber%" -T "TOTALDISCS=%totalcds%" -T "TOTALTRACKS=%numtracks%" -T "COMMENT=EAC V1.0 beta 2, Secure Mode, Test & Copy, AccurateRip, FLAC -8" %source% -o %dest%
TOC of the extracted CD
Track | Start | Length | Start sector | End sector
---------------------------------------------------------
1 | 0:00.00 | 2:55.74 | 0 | 13198
2 | 2:55.74 | 4:48.61 | 13199 | 34859
3 | 7:44.60 | 4:01.16 | 34860 | 52950
4 | 11:46.01 | 3:17.45 | 52951 | 67770
5 | 15:03.46 | 3:18.38 | 67771 | 82658
6 | 18:22.09 | 3:33.43 | 82659 | 98676
7 | 21:55.52 | 3:04.44 | 98677 | 112520
8 | 25:00.21 | 3:53.30 | 112521 | 130025
9 | 28:53.51 | 4:18.42 | 130026 | 149417
10 | 33:12.18 | 2:56.17 | 149418 | 162634
Track 1
Filename Z:\Rips\01 - Redneck.wav
Pre-gap length 0:00:02.00
Peak level 98.8 %
Extraction speed 1.6 X
Track quality 100.0 %
Test CRC 22016E62
Copy CRC 22016E62
Track not present in AccurateRip database
Copy OK
Track 2
Filename Z:\Rips\02 - Walk With Me in Hell.wav
Pre-gap length 0:00:02.00
Peak level 98.8 %
Extraction speed 1.7 X
Track quality 99.9 %
Test CRC A1EFABD9
Copy CRC A1EFABD9
Track not present in AccurateRip database
Copy OK
Track 3
Filename Z:\Rips\03 - Laid to Rest.wav
Pre-gap length 0:00:02.00
Peak level 98.8 %
Extraction speed 2.1 X
Track quality 100.0 %
Test CRC BC291E05
Copy CRC BC291E05
Track not present in AccurateRip database
Copy OK
Track 4
Filename Z:\Rips\04 - Black Label.wav
Pre-gap length 0:00:02.00
Peak level 98.8 %
Extraction speed 2.2 X
Track quality 100.0 %
Test CRC B7532973
Copy CRC B7532973
Track not present in AccurateRip database
Copy OK
Track 5
Filename Z:\Rips\05 - Ruin.wav
Pre-gap length 0:00:02.00
Peak level 98.8 %
Extraction speed 1.9 X
Track quality 99.9 %
Test CRC 8C8A343F
Copy CRC 8C8A343F
Track not present in AccurateRip database
Copy OK
Track 6
Filename Z:\Rips\06 - Again We Rise.wav
Pre-gap length 0:00:02.00
Peak level 98.8 %
Extraction speed 2.4 X
Track quality 100.0 %
Test CRC 11CAEA2D
Copy CRC 11CAEA2D
Track not present in AccurateRip database
Copy OK
Track 7
Filename Z:\Rips\07 - 11th Hour.wav
Pre-gap length 0:00:02.00
Peak level 98.8 %
Extraction speed 2.0 X
Track quality 99.9 %
Test CRC 993BF75A
Copy CRC 993BF75A
Track not present in AccurateRip database
Copy OK
Track 8
Filename Z:\Rips\08 - Vigil.wav
Pre-gap length 0:00:02.00
Peak level 98.8 %
Extraction speed 2.2 X
Track quality 99.9 %
Test CRC 6CD3A8DE
Copy CRC 6CD3A8DE
Track not present in AccurateRip database
Copy OK
Track 9
Filename Z:\Rips\09 - Blacken the Cursed Sun.wav
Pre-gap length 0:00:02.00
Peak level 98.8 %
Extraction speed 2.9 X
Track quality 100.0 %
Test CRC 082F49C1
Copy CRC 082F49C1
Track not present in AccurateRip database
Copy OK
Track 10
Filename Z:\Rips\10 - Contractor.wav
Pre-gap length 0:00:02.00
Peak level 98.8 %
Extraction speed 2.8 X
Track quality 100.0 %
Test CRC 7F64BCF0
Copy CRC 7F64BCF0
Track not present in AccurateRip database
Copy OK
None of the tracks are present in the AccurateRip database
No errors occurred
End of status report
==== Log checksum 84F7C93D39267884E4DA3705ACA5ACD76D46EC78D33D5F4B1F8B9BFC27E9F40A ====

.CUE

REM GENRE InstrumentalREM DATE 2009REM DISCID 7F08780AREM COMMENT "ExactAudioCopy v1.0b3"FILE "01 - Redneck.wav" WAVE TRACK 01 AUDIO INDEX 01 00:00:00 TRACK 02 AUDIO INDEX 00 02:53:74FILE "02 - Walk With Me in Hell.wav" WAVE INDEX 01 00:00:00 TRACK 03 AUDIO INDEX 00 04:46:61FILE "03 - Laid to Rest.wav" WAVE INDEX 01 00:00:00 TRACK 04 AUDIO INDEX 00 03:59:16FILE "04 - Black Label.wav" WAVE INDEX 01 00:00:00 TRACK 05 AUDIO INDEX 00 03:15:45FILE "05 - Ruin.wav" WAVE INDEX 01 00:00:00 TRACK 06 AUDIO INDEX 00 03:16:38FILE "06 - Again We Rise.wav" WAVE INDEX 01 00:00:00 TRACK 07 AUDIO INDEX 00 03:31:43FILE "07 - 11th Hour.wav" WAVE INDEX 01 00:00:00 TRACK 08 AUDIO INDEX 00 03:02:44FILE "08 - Vigil.wav" WAVE INDEX 01 00:00:00 TRACK 09 AUDIO INDEX 00 03:51:30FILE "09 - Blacken the Cursed Sun.wav" WAVE INDEX 01 00:00:00 TRACK 10 AUDIO INDEX 00 04:16:42FILE "10 - Contractor.wav" WAVE INDEX 01 00:00:00

auCDtect Manager

-----------------------
DON'T MODIFY THIS FILE
-----------------------
PERFORMER: auCDtect Task Manager, ver. 1.5.1RC6 build 1.5.1.7
Copyright (c) 2008-2010 y-soft. All rights reserved
http://y-soft.org
ANALYZER: auCDtect: CD records authenticity detector, version 0.8.2
Copyright (c) 2004 Oleg Berngardt. All rights reserved.
Copyright (c) 2004 Alexander Djourik. All rights reserved.
FILE: 10 - Contractor.flac
Size: 15870037 Hash: B1E6F32FB873E3CC8001272EFCA5DFF8 Accuracy: -m0
Conclusion: CDDA 100%
Signature: 268459A15882575FE488A5CAA29630127FCA85ED
FILE: 09 - Blacken the Cursed Sun.flac
Size: 24395957 Hash: 9467881FC85E1C0BA63B71566CE8C392 Accuracy: -m0
Conclusion: CDDA 100%
Signature: 6B58394355C7C9DB9BE4E9FA87E8741837E4FC19
FILE: 08 - Vigil.flac
Size: 17871982 Hash: A17CE56B25CB0932A544B83ADAC555C3 Accuracy: -m0
Conclusion: CDDA 100%
Signature: 2F088EE70DF2BFAF7A535D4F5CB1B5FE28F14D34
FILE: 07 - 11th Hour.flac
Size: 16283900 Hash: 7E88C719C1B5743F2DB15221388071F8 Accuracy: -m0
Conclusion: CDDA 100%
Signature: 1F4852D774D7834026336D3DAAAD031395396883
FILE: 06 - Again We Rise.flac
Size: 20561469 Hash: 3C62D9FC20872ABC53FA5E47E19B0BE0 Accuracy: -m0
Conclusion: CDDA 100%
Signature: CC2E1FB07F650FBC60FF0F3B1F6E93D0C8709547
FILE: 05 - Ruin.flac
Size: 16950836 Hash: 1F551399D47DEBA9E0F6F2886FADA3FB Accuracy: -m0
Conclusion: CDDA 100%
Signature: 35133834A9747B767DA84CF73BC8E6981F322F96
FILE: 04 - Black Label.flac
Size: 16329722 Hash: 5A03B32B7A0B1596CF391B282EE5588A Accuracy: -m0
Conclusion: CDDA 100%
Signature: EE754DE52FA0E9F399682FB892495DE5B2A8496E
FILE: 03 - Laid to Rest.flac
Size: 21615072 Hash: BA33CE5B457F973745880654D209DB32 Accuracy: -m0
Conclusion: CDDA 100%
Signature: BB2435381731327E27E20F551D2F36B21387662D
FILE: 02 - Walk With Me in Hell.flac
Size: 27064940 Hash: E86937BC10AFBD27CA1010D32E192D6E Accuracy: -m0
Conclusion: CDDA 99%
Signature: D67DBADF2BC7E9A1C7EBD5F32741052781577C8C
FILE: 01 - Redneck.flac
Size: 15823905 Hash: CCF2E61030AB6B4FDB8C5D1DDFDD9651 Accuracy: -m0
Conclusion: CDDA 100%
Signature: F6F567689C09B6AD77E47667EDA37F6962769DE5



Показать сообщения:    

Текущее время: 04-Дек 04:57

Часовой пояс: UTC + 3


Вы не можете начинать темы
Вы не можете отвечать на сообщения
Вы не можете редактировать свои сообщения
Вы не можете удалять свои сообщения
Вы не можете голосовать в опросах
Вы не можете прикреплять файлы к сообщениям
Вы не можете скачивать файлы