(Classical Crossover) Petra Berger - Eternal Woman - 2001, FLAC (image+.cue), lossless


 

[Цитировать]

Petra Berger - Eternal Woman
Жанр: Classical Crossover
Год выпуска диска: 2001
Производитель диска: Германия
Аудио кодек: FLAC
Тип рипа: image+.cue
Битрейт аудио: lossless
Продолжительность: 40:31
Источник рипа: оригинальный диск
Треклист:
1 Terra Promesa 03:53
2 Close Your Eyes (He'll Be Just fine) 03:45
3 Boadicea 03:43
4 The Girl Looking Into Me 03:18
5 If I Had A Wish 03:49
6 When He Spoke My Name 03:53
7 Eres Todo Para Mi 03:49
8 I`m Coming Home 03:21
9 Now`s The Time 03:42
10 Still A Queen 03:46
11 All For Love 03:37

Лог создания рипа

Exact Audio Copy V1.0 beta 3 from 29. August 2011
Отчёт EAC об извлечении, выполненном 29. февраля 2012, 16:35
Petra Berger / Eternal woman
Дисковод: HL-DT-STDVDRAM GSA-H10N Adapter: 0 ID: 2
Режим чтения : ДостоверностьИспользование точного потока : ДаОтключение кэша аудио : ДаИспользование указателей C2 : Нет
Коррекция смещения при чтении : 667Способность читать области Lead-in и Lead-out : НетЗаполнение пропущенных сэмплов тишиной : ДаУдаление блоков с тишиной в начале и конце : НетПри вычислениях CRC использовались нулевые сэмплы : ДаИнтерфейс : Установленный внешний ASPI-интерфейс
Выходной формат : Внутренние WAV-операцииФормат сэмплов : 44.100 Гц; 16 бит; стерео
TOC извлечённого CD
Трек | Старт | Длительность | Начальный сектор | Конечный сектор --------------------------------------------------------------------- 1 | 0:00.00 | 3:52.53 | 0 | 17452 2 | 3:52.53 | 3:45.12 | 17453 | 34339 3 | 7:37.65 | 3:42.47 | 34340 | 51036 4 | 11:20.37 | 3:18.14 | 51037 | 65900 5 | 14:38.51 | 3:48.62 | 65901 | 83062 6 | 18:27.38 | 3:53.26 | 83063 | 100563 7 | 22:20.64 | 3:49.25 | 100564 | 117763 8 | 26:10.14 | 3:21.03 | 117764 | 132841 9 | 29:31.17 | 3:42.15 | 132842 | 149506 10 | 33:13.32 | 3:45.39 | 149507 | 166420 11 | 36:58.71 | 3:36.63 | 166421 | 182683
Характеристики диапазона извлечения и сообщения об ошибках
Выбранный диапазон
Имя файла C:\downloads\torrent\ends\Petra Berger 2001 Eternal Woman\Petra Berger - Eternal woman.wav
Пиковый уровень 100.0 % Скорость извлечения 6.9 X Качество диапазона 100.0 % CRC копии 04C0B042 Копирование... OK
Ошибок не произошло
AccurateRip: сводка
Трек 1 точность не определена (достоверность 10) [0A3F05E3], AccurateRip вернул [9D44D1ED] (AR v2)Трек 2 точность не определена (достоверность 10) [39945E8E], AccurateRip вернул [A91238C4] (AR v2)Трек 3 точность не определена (достоверность 10) [4AE587B0], AccurateRip вернул [BE7890F4] (AR v2)Трек 4 точность не определена (достоверность 10) [EB77FBB3], AccurateRip вернул [DB19A0FE] (AR v2)Трек 5 точность не определена (достоверность 10) [3122B160], AccurateRip вернул [D02D70BE] (AR v2)Трек 6 точность не определена (достоверность 10) [1431670A], AccurateRip вернул [0AE6CD39] (AR v2)Трек 7 точность не определена (достоверность 11) [3A2A4F57], AccurateRip вернул [6960FEDB] (AR v2)Трек 8 точность не определена (достоверность 11) [B4F859CE], AccurateRip вернул [5E83E37C] (AR v2)Трек 9 точность не определена (достоверность 11) [54810E91], AccurateRip вернул [81DCDE66] (AR v2)Трек 10 точность не определена (достоверность 11) [B893090C], AccurateRip вернул [EFBF54A8] (AR v2)Трек 11 точность не определена (достоверность 11) [34005DA0], AccurateRip вернул [CDAE850E] (AR v2)
Ни один трек не прошёл проверки на точностьВ вашей базе может быть иной вариант штамповки диска
Конец отчёта
==== Контрольная сумма отчёта 53970C33BD59CF6B3E6D7AE9A1309A65AA6F7F1A33C30F045F812D5F4FB8CC6B ====

Содержание индексной карты (.CUE)

REM GENRE "Classical Crossover"REM DATE 2001REM DISCID 9109830BREM COMMENT "ExactAudioCopy v1.0b3"PERFORMER "Petra Berger"TITLE "Eternal woman"FILE "Petra Berger - Eternal woman.flac" WAVE TRACK 01 AUDIO TITLE "Terra promesa" PERFORMER "Petra Berger" INDEX 01 00:00:00 TRACK 02 AUDIO TITLE "Close your eyes (He'll be just fine)" PERFORMER "Petra Berger" INDEX 00 03:51:72 INDEX 01 03:52:53 TRACK 03 AUDIO TITLE "Boadicea" PERFORMER "Petra Berger" INDEX 00 07:36:67 INDEX 01 07:37:65 TRACK 04 AUDIO TITLE "The girl looking into me" PERFORMER "Petra Berger" INDEX 01 11:20:37 TRACK 05 AUDIO TITLE "If I had a wish" PERFORMER "Petra Berger" INDEX 00 14:37:26 INDEX 01 14:38:51 TRACK 06 AUDIO TITLE "When he spoke my name" PERFORMER "Petra Berger" INDEX 00 18:26:25 INDEX 01 18:27:38 TRACK 07 AUDIO TITLE "Eres todo para mi" PERFORMER "Petra Berger" INDEX 00 22:20:29 INDEX 01 22:20:64 TRACK 08 AUDIO TITLE "I'm coming home" PERFORMER "Petra Berger" INDEX 00 26:09:66 INDEX 01 26:10:14 TRACK 09 AUDIO TITLE "Now's the time" PERFORMER "Petra Berger" INDEX 00 29:30:34 INDEX 01 29:31:17 TRACK 10 AUDIO TITLE "Still a queen" PERFORMER "Petra Berger" INDEX 00 33:12:61 INDEX 01 33:13:32 TRACK 11 AUDIO TITLE "All for love" PERFORMER "Petra Berger" INDEX 00 36:58:53 INDEX 01 36:58:71

Лог проверки качества

-----------------------
DON'T MODIFY THIS FILE
-----------------------
PERFORMER: auCDtect Task Manager, ver. 1.5.1RC6 build 1.5.1.7Copyright (c) 2008-2010 y-soft. All rights reservedhttp://y-soft.org
ANALYZER: auCDtect: CD records authenticity detector, version 0.8.2Copyright (c) 2004 Oleg Berngardt. All rights reserved.Copyright (c) 2004 Alexander Djourik. All rights reserved.
FILE: Petra Berger - Eternal woman.wav Size: 429672812 Hash: 9D0035AC07CD938E340B29EF02CC41DC Accuracy: -m0 Conclusion: CDDA 100% Signature: 6290B309CA4E8C3E6A3F8B59931F9CAACC91F0CD

Мои раздачи

CDDA Christiana - The night wants - 1993 http://rutracker.org/forum/viewtopic.php?t=3973946 CDDA Daniela Mercury 1998 MPBnoJT http://rutracker.org/forum/viewtopic.php?t=3968096 CDDA Falco (Axel Herrig) 2000 FMA (Falco Meets Amadeus) http://rutracker.org/forum/viewtopic.php?t=3963695 CDDA Fredrik Kempe 2002 Songs For You Broken Heart http://rutracker.org/forum/viewtopic.php?t=3964025 CDDA Fredrik Kempe 2004 Boheme http://rutracker.org/forum/viewtopic.php?t=3964043 CDDA Gerardina Trovato 1993 Gerardina Trovato http://rutracker.org/forum/viewtopic.php?t=3965217 CDDA Irene Fargo - La voce magica della luna - 1991 http://rutracker.org/forum/viewtopic.php?t=3973774 CDDA Irene Fargo 1993 Labirinti Del Cuore http://rutracker.org/forum/viewtopic.php?t=3963944 CDDA Iva Zanicchi 1997 Serie Club http://rutracker.org/forum/viewtopic.php?t=3963798 CDDA Joan Jett 1979 Joan Jett (1995) [Fan Club Edition] http://rutracker.org/forum/viewtopic.php?t=3966230 CDDA Kozmic Muffin 1994 Nautilus http://rutracker.org/forum/viewtopic.php?t=3972423 CDDA Kraftwerk 1997 Computersinfonien 2CD (Live in Karlsruhe 18-10-97 bootleg) http://rutracker.org/forum/viewtopic.php?t=3967532 CDDA Krystl 2011 Rolling http://rutracker.org/forum/viewtopic.php?t=3967889 CDDA Malena Ernmann 2009 La Voux Du Nord (2CD) http://rutracker.org/forum/viewtopic.php?t=3963766 CDDA Martin Matalon - Le Scorpion - 2004 http://rutracker.org/forum/viewtopic.php?t=3973979 CDDA Matia Bazar 2011 Fantasia-Best & Rariries http://rutracker.org/forum/viewtopic.php?t=3958081 CDDA Milva 1992 Quattro Vestiti http://rutracker.org/forum/viewtopic.php?t=3968377 CDDA Petra Berger 2001 Eternal Woman http://rutracker.org/forum/viewtopic.php?t=3963834 CDDA Raf 1996 Collezione Temporanea http://rutracker.org/forum/viewtopic.php?t=3971782 CDDA Robert Stanton - Acoustic Storm - 1997 http://rutracker.org/forum/viewtopic.php?t=3973967 CDDA Susanna Borsch - Off-Limits - 2006 http://rutracker.org/forum/viewtopic.php?t=3973958 CDDA VA - 1991 Les Plus Grandes Chansons http://rutracker.org/forum/viewtopic.php?t=3968241 CDDA VA - 54* Sanremo - Festival della Canzone Italiana - 2004 http://rutracker.org/forum/viewtopic.php?t=3977214 CDDA VA - Ciao Italia (2CD) 2001 http://rutracker.org/forum/viewtopic.php?t=3967837 CDDA VA - Greatest hits of the 80's (8CD Box) - 1998 http://rutracker.org/forum/viewtopic.php?t=3977281 CDDA VA - Love Ring Best 2000 http://rutracker.org/forum/viewtopic.php?t=3967694 CDDA VA - More Greatest hits of the 80's (8CD Box) - 2000 http://rutracker.org/forum/viewtopic.php?t=3975264 CDDA VA - Sanremo 2002 (2 CD) http://rutracker.org/forum/viewtopic.php?t=3964272 CDDA VA - Sanremo 2006 (2 CD) http://rutracker.org/forum/viewtopic.php?t=3964199 CDDA VA - Sanremo 2012 http://rutracker.org/forum/viewtopic.php?t=3966923 CDDA VA - Super Sanremo 2012 I Grandi Successi del Festival http://rutracker.org/forum/viewtopic.php?t=3966899 CDDA VA 1993 I Protagonisti Vol 1 http://rutracker.org/forum/viewtopic.php?t=3968502 CDDA VA 1993 I Protagonisti Vol 2 http://rutracker.org/forum/viewtopic.php?t=3971195 CDDA VA 2010 Rock Mantique Top 100 Vol.3 [5 CD BOX] http://rutracker.org/forum/viewtopic.php?t=3971805 CDDA Vincent Persichetti - Complete Piano Sonatas - 2008 http://rutracker.org/forum/viewtopic.php?t=3973816



Показать сообщения:    

Текущее время: 09-Дек 08:51

Часовой пояс: UTC + 3


Вы не можете начинать темы
Вы не можете отвечать на сообщения
Вы не можете редактировать свои сообщения
Вы не можете удалять свои сообщения
Вы не можете голосовать в опросах
Вы не можете прикреплять файлы к сообщениям
Вы не можете скачивать файлы