(Pop / Classical) Louis Clark conducting The Royal Philharmonic Orchestra - The Best Of Hooked On Classics 1981 - 1984 / 1984, FLAC (image+.cue), lossless


 

[Цитировать]

Louis Clark conducting The Royal Philharmonic Orchestra
The Best Of Hooked On Classics 1981 - 1984
-Жанр: Pop / Classical / Baroque / Modern / Romantic / Contemporary
Страна-производитель диска: UK
Год издания диска: 1984
Издатель (лейбл): K-Tel / MCPS
Номер по каталогу: ECD 3269
Страна: England
Аудиокодек: FLAC (*.flac)
Тип рипа: image+.cue
Битрейт аудио: lossless
Продолжительность: 00:58:27
Источник (релизер): stas64
Наличие сканов в содержимом раздачи: нет
- .
Треклист:

01 - Hooked On Classics (Parts 1 & 2)
02 - Can't Stop The Classics
03 - A Night At The Opera
04 - Hooked On America
05 - Symphonies Of The Seas
06 - Hooked On A Can Can
07 - Also Sprach Zarathustra
08 - Journey Through The Classics
09 - Hooked On Tchaikovsky
10 - Hooked On Romance Opus 3
11 - Tales Of The Vienna Waltz
12 - If You Knew Sousa
13 - If You Knew Sousa (And Friends)
14 - Scotland The Brave (Hookery Jiggery Jock)
.

Лог создания рипа Отчёт EAC

Exact Audio Copy V1.0 beta 3 from 29. August 2011
Отчёт EAC об извлечении, выполненном 16. февраля 2012, 12:00
Royal Philharmonic Orchestra / The Best of Hooked on Classics
Дисковод: TEAC DV-W518GM Adapter: 6 ID: 0
Режим чтения : ДостоверностьИспользование точного потока : ДаОтключение кэша аудио : ДаИспользование указателей C2 : Нет
Коррекция смещения при чтении : 6Способность читать области Lead-in и Lead-out : НетЗаполнение пропущенных сэмплов тишиной : ДаУдаление блоков с тишиной в начале и конце : НетПри вычислениях CRC использовались нулевые сэмплы : ДаИнтерфейс : Установленный внешний ASPI-интерфейс
Выходной формат : Пользовательский кодировщикВыбранный битрейт : 128 kBit/sКачество : ВысокийДобавление ID3-тега : НетУтилита сжатия : C:\Program Files (x86)\Exact Audio Copy\FLAC\FLAC.EXEДополнительные параметры : -V -8 -T "Genre=%genre%" -T "Artist=%artist%" -T "Title=%title%" -T "Album=%albumtitle%" -T "Date=%year%" -T "Tracknumber=%tracknr%" -T "Comment=%comment%" %source%
TOC извлечённого CD
Трек | Старт | Длительность | Начальный сектор | Конечный сектор --------------------------------------------------------------------- 1 | 0:00.00 | 5:07.55 | 0 | 23079 2 | 5:07.55 | 5:48.15 | 23080 | 49194 3 | 10:55.70 | 6:06.15 | 49195 | 76659 4 | 17:02.10 | 4:08.40 | 76660 | 95299 5 | 21:10.50 | 2:49.10 | 95300 | 107984 6 | 23:59.60 | 4:56.15 | 107985 | 130199 7 | 28:56.00 | 1:12.30 | 130200 | 135629 8 | 30:08.30 | 3:52.20 | 135630 | 153049 9 | 34:00.50 | 5:29.27 | 153050 | 177751 10 | 39:30.02 | 4:18.38 | 177752 | 197139 11 | 43:48.40 | 4:06.60 | 197140 | 215649 12 | 47:55.25 | 3:33.47 | 215650 | 231671 13 | 51:28.72 | 3:06.05 | 231672 | 245626 14 | 54:35.02 | 3:52.53 | 245627 | 263079
Характеристики диапазона извлечения и сообщения об ошибках
Выбранный диапазон
Имя файла L:\MUZON\Royal Philharmonic Orchestra\Royal.Philharmonic.Orchestra-The.Best.of.Hooked.on.Classics-1984\Royal Philharmonic Orchestra - The Best of Hooked on Classics.wav
Пиковый уровень 100.0 % Скорость извлечения 3.1 X Качество диапазона 100.0 % CRC теста DAC98ACF CRC копии DAC98ACF Копирование... OK
Ошибок не произошло
AccurateRip: сводка
Трек 1 точность не определена (достоверность 3) [8B482458], AccurateRip вернул [FEE38EE8] (AR v2)Трек 2 точность не определена (достоверность 3) [2F1ECFEC], AccurateRip вернул [C84BF844] (AR v2)Трек 3 точность не определена (достоверность 3) [3AA86202], AccurateRip вернул [CB34BF2C] (AR v2)Трек 4 точность не определена (достоверность 3) [F9AC00BC], AccurateRip вернул [440EF735] (AR v2)Трек 5 точность не определена (достоверность 3) [76D0C0EF], AccurateRip вернул [B52EAF03] (AR v2)Трек 6 точность не определена (достоверность 3) [23EC3BF1], AccurateRip вернул [75E378CA] (AR v2)Трек 7 точность не определена (достоверность 3) [A9F01530], AccurateRip вернул [2017AFB8] (AR v2)Трек 8 точность не определена (достоверность 3) [0B571E9C], AccurateRip вернул [09E8D696] (AR v2)Трек 9 точность не определена (достоверность 3) [785D17BC], AccurateRip вернул [A50E5DDF] (AR v2)Трек 10 точность не определена (достоверность 3) [C111525A], AccurateRip вернул [6751E5D6] (AR v2)Трек 11 точность не определена (достоверность 3) [216E041B], AccurateRip вернул [AC7F4795] (AR v2)Трек 12 точность не определена (достоверность 3) [94B87493], AccurateRip вернул [2865660A] (AR v2)Трек 13 точность не определена (достоверность 3) [67F6FB3D], AccurateRip вернул [591FCE86] (AR v2)Трек 14 точность не определена (достоверность 3) [615D0002], AccurateRip вернул [56D016FB] (AR v2)
Ни один трек не прошёл проверки на точностьВ вашей базе может быть иной вариант штамповки диска
Конец отчёта
==== Контрольная сумма отчёта 30FEE933CECD3EB964E2412F5714AA21605B8577F09E7238396273C0DE915DC1 ====

Содержание индексной карты (.CUE)

REM GENRE PopREM DATE 1984REM DISCID B20DB30EREM COMMENT "ExactAudioCopy v1.0b3"PERFORMER "Royal Philharmonic Orchestra"TITLE "The Best of Hooked on Classics"FILE "Royal Philharmonic Orchestra - The Best of Hooked on Classics.flac" WAVE TRACK 01 AUDIO TITLE "Hooked on Classics, Parts 1 & 2" PERFORMER "Royal Philharmonic Orchestra" INDEX 01 00:00:00 TRACK 02 AUDIO TITLE "Can't Stop the Classics" PERFORMER "Royal Philharmonic Orchestra" INDEX 00 05:06:35 INDEX 01 05:07:55 TRACK 03 AUDIO TITLE "A Night at the Opera" PERFORMER "Royal Philharmonic Orchestra" INDEX 00 10:55:08 INDEX 01 10:55:70 TRACK 04 AUDIO TITLE "Hooked on America" PERFORMER "Royal Philharmonic Orchestra" INDEX 00 17:01:10 INDEX 01 17:02:10 TRACK 05 AUDIO TITLE "Symphonies of the Seas" PERFORMER "Royal Philharmonic Orchestra" INDEX 00 21:09:16 INDEX 01 21:10:50 TRACK 06 AUDIO TITLE "Hooked on a Can Can" PERFORMER "Royal Philharmonic Orchestra" INDEX 00 23:59:03 INDEX 01 23:59:60 TRACK 07 AUDIO TITLE "Also sprach Zarathustra" PERFORMER "Royal Philharmonic Orchestra" INDEX 00 28:55:45 INDEX 01 28:56:00 TRACK 08 AUDIO TITLE "Journey Through the Classics" PERFORMER "Royal Philharmonic Orchestra" INDEX 01 30:08:30 TRACK 09 AUDIO TITLE "Hooked on Tchaikovsky" PERFORMER "Royal Philharmonic Orchestra" INDEX 00 34:00:02 INDEX 01 34:00:50 TRACK 10 AUDIO TITLE "Hooked on Romance Opus 3" PERFORMER "Royal Philharmonic Orchestra" INDEX 00 39:29:22 INDEX 01 39:30:02 TRACK 11 AUDIO TITLE "Tales of the Vienna Waltz" PERFORMER "Royal Philharmonic Orchestra" INDEX 00 43:47:45 INDEX 01 43:48:40 TRACK 12 AUDIO TITLE "If You Knew Sousa" PERFORMER "Royal Philharmonic Orchestra" INDEX 00 47:54:54 INDEX 01 47:55:25 TRACK 13 AUDIO TITLE "If You Knew Sousa (and Friends)" PERFORMER "Royal Philharmonic Orchestra" INDEX 01 51:28:72 TRACK 14 AUDIO TITLE "Scotland the Brave (Hookery Jiggery Jock)" PERFORMER "Royal Philharmonic Orchestra" INDEX 00 54:34:47 INDEX 01 54:35:02

Лог проверки качестваau CDtect Task Manager

-----------------------
DON'T MODIFY THIS FILE
-----------------------
PERFORMER: auCDtect Task Manager, ver. 1.5.1RC6 build 1.5.1.7Copyright (c) 2008-2010 y-soft. All rights reservedhttp://y-soft.org
ANALYZER: auCDtect: CD records authenticity detector, version 0.8.2Copyright (c) 2004 Oleg Berngardt. All rights reserved.Copyright (c) 2004 Alexander Djourik. All rights reserved.
FILE: Royal Philharmonic Orchestra - The Best of Hooked on Classics.flac Size: 404237099 Hash: 46B729F5DC3D1CBA28E5B60E4B2C4713 Accuracy: -m0 Conclusion: MPEG 95% Signature: CB6DBF89D664FD28CE0B7AB98D9D406BCD1A8E5A

Скриншот спектра частот CDtect




Показать сообщения:    

Текущее время: 05-Дек 23:40

Часовой пояс: UTC + 3


Вы не можете начинать темы
Вы не можете отвечать на сообщения
Вы не можете редактировать свои сообщения
Вы не можете удалять свои сообщения
Вы не можете голосовать в опросах
Вы не можете прикреплять файлы к сообщениям
Вы не можете скачивать файлы