(Pop/Classical) Ricardo Marinello - The Beginning - 2007, FLAC (image+.cue), lossless


 

[Цитировать]

Ricardo Marinello / The Beginning
Жанр: Pop/Classical
Страна-производитель диска: Germany
Год издания диска: 2007
Издатель (лейбл): Sony BMG Music Entertainment
Номер по каталогу: 88697 21756 2
Страна: Germany
Аудиокодек: FLAC (*.flac)
Тип рипа: image+.cue
Битрейт аудио: lossless
Продолжительность: 47 мин.
Источник (релизер): Собственный диск
Наличие сканов в содержимом раздачи: нет
Треклист:
01-Time To Say Goodbye (Con Te Partiro)
02-Somewhere In My Heart
03-You Raise Me Up (Por Ti Sere)
04-How Can I Live Without Your Love
05-Panis Angelicus
06-Everytime I Touch You
07-O Sole Mio
08-I Cant Forget The Moment
09-Nella Fantasia
10-Come Fly With Me (Vola Con Me)
11-Ave Maria
12-It's Christmas Time

Лог создания рипа

Exact Audio Copy V0.99 prebeta 5 from 4. May 2009
Отчёт EAC об извлечении, выполненном 12. февраля 2012, 8:24
Ricardo Marinello / The Beginning
Дисковод: PIONEER DVD-RW DVR-215D Adapter: 1 ID: 0
Режим чтения : ДостоверностьИспользование точного потока : ДаОтключение кэша аудио : ДаИспользование указателей C2 : Нет
Коррекция смещения при чтении : 48Способность читать области Lead-in и Lead-out : НетЗаполнение пропущенных сэмплов тишиной : ДаУдаление блоков с тишиной в начале и конце : НетПри вычислениях CRC использовались нулевые сэмплы : ДаИнтерфейс : Встроенный Win32-интерфейс для Win NT/2000
Выходной формат : Внутренние WAV-операцииФормат сэмплов : 44.100 Гц; 16 бит; стерео
TOC извлечённого CD
Трек | Старт | Длительность | Начальный сектор | Конечный сектор --------------------------------------------------------------------- 1 | 0:00.00 | 4:03.70 | 0 | 18294 2 | 4:03.70 | 3:42.45 | 18295 | 34989 3 | 7:46.40 | 4:02.54 | 34990 | 53193 4 | 11:49.19 | 4:25.66 | 53194 | 73134 5 | 16:15.10 | 3:11.41 | 73135 | 87500 6 | 19:26.51 | 3:28.42 | 87501 | 103142 7 | 22:55.18 | 4:14.09 | 103143 | 122201 8 | 27:09.27 | 4:00.30 | 122202 | 140231 9 | 31:09.57 | 4:19.71 | 140232 | 159727 10 | 35:29.53 | 3:49.55 | 159728 | 176957 11 | 39:19.33 | 4:27.46 | 176958 | 197028 12 | 43:47.04 | 3:16.00 | 197029 | 211728
Характеристики диапазона извлечения и сообщения об ошибках
Выбранный диапазон
Имя файла C:\Documents and Settings\Admin\Рабочий стол\Ricardo Marinello - The Beginning\Ricardo Marinello - The Beginning.wav
Пиковый уровень 99.4 % Качество диапазона 100.0 % CRC теста 16E62DA7 CRC копии 16E62DA7 Копирование... OK
Ошибок не произошло
AccurateRip: сводка
Трек 1 точное извлечение (доверие 8) [120E8666]Трек 2 точное извлечение (доверие 8) [FD973774]Трек 3 точное извлечение (доверие 8) [57687F50]Трек 4 точное извлечение (доверие 8) [33F6C224]Трек 5 точное извлечение (доверие 8) [2D5B2FD3]Трек 6 точное извлечение (доверие 8) [1AF92525]Трек 7 точное извлечение (доверие 8) [2B2F130B]Трек 8 точное извлечение (доверие 8) [656267C9]Трек 9 точное извлечение (доверие 8) [ADEFE66E]Трек 10 точное извлечение (доверие 8) [2FFA7E3E]Трек 11 точное извлечение (доверие 8) [897D6D0C]Трек 12 точное извлечение (доверие 8) [E6A73706]
Все треки извлечены точно
Конец отчёта

Содержание индексной карты (.CUE)

REM GENRE ClassicalREM DATE 2007REM DISCID A30B070CREM COMMENT "ExactAudioCopy v0.99pb5"PERFORMER "Ricardo Marinello"TITLE "The Beginning"FILE "Ricardo Marinello - The Beginning.wav" WAVE TRACK 01 AUDIO TITLE "Time To Say Goodbye (Con Te Partiro)" PERFORMER "Ricardo Marinello" INDEX 01 00:00:00 TRACK 02 AUDIO TITLE "Somewhere In My Heart" PERFORMER "Ricardo Marinello" INDEX 00 04:02:66 INDEX 01 04:03:70 TRACK 03 AUDIO TITLE "You Raise Me Up (Por Ti Sere)" PERFORMER "Ricardo Marinello" INDEX 00 07:44:14 INDEX 01 07:46:40 TRACK 04 AUDIO TITLE "How Can I Live Without Your Love" PERFORMER "Ricardo Marinello" INDEX 00 11:47:19 INDEX 01 11:49:19 TRACK 05 AUDIO TITLE "Panis Angelicus" PERFORMER "Ricardo Marinello" INDEX 00 16:13:12 INDEX 01 16:15:10 TRACK 06 AUDIO TITLE "Everytime I Touch You" PERFORMER "Ricardo Marinello" INDEX 00 19:24:23 INDEX 01 19:26:51 TRACK 07 AUDIO TITLE "O Sole Mio" PERFORMER "Ricardo Marinello" INDEX 00 22:52:66 INDEX 01 22:55:18 TRACK 08 AUDIO TITLE "I Can't Forget The Moment" PERFORMER "Ricardo Marinello" INDEX 00 27:07:25 INDEX 01 27:09:27 TRACK 09 AUDIO TITLE "Nella Fantasia" PERFORMER "Ricardo Marinello" INDEX 00 31:07:52 INDEX 01 31:09:57 TRACK 10 AUDIO TITLE "Come Fly With Me (Vola Con Me)" PERFORMER "Ricardo Marinello" INDEX 00 35:26:34 INDEX 01 35:29:53 TRACK 11 AUDIO TITLE "Ave Maria" PERFORMER "Ricardo Marinello" INDEX 00 39:17:39 INDEX 01 39:19:33 TRACK 12 AUDIO TITLE "It's Christmas Time" PERFORMER "Ricardo Marinello" INDEX 00 43:45:36 INDEX 01 43:47:04
Доп. информация: Tracks: 2,4,6,8,10,12 - Lyrics, Music by Dieter Bohlen



Показать сообщения:    

Текущее время: 05-Дек 05:27

Часовой пояс: UTC + 3


Вы не можете начинать темы
Вы не можете отвечать на сообщения
Вы не можете редактировать свои сообщения
Вы не можете удалять свои сообщения
Вы не можете голосовать в опросах
Вы не можете прикреплять файлы к сообщениям
Вы не можете скачивать файлы