(Classical, Covers, House Mix) Waldo De Los Rios - Mozart In The House - 1991, FLAC (tracks+.cue), lossless


 

[Цитировать]

Waldo De Los Rios - Mozart In The House (1991)
Жанр: Classical, Covers, House Mix
Год выпуска cd-диска: 1991
Производитель cd-диска: Spain, Hispavox, 7 98053 2
Аудио кодек: FLAC
Тип рипа: tracks+.cue
Битрейт аудио: lossless
Продолжительность: 00:46:34
Треклист:
01. Broma Musical (5:51)
02. Mozart 21 (Do21 Mix) (5:20)
03. Mozart 13 (Allegro Hot Mix) (4:43)
04. Mozart 13 (Menuetto Nigth Mix) (4:01)
05. Broma Musical (Mozart In The House - Version Single) (3:47)
06. Sinfonia 40 (En Sol Menor K550 - Sin 40 House Mix) (6:20)
07. Mozart Nova (Magic Flute Mix) (5:33)
08. Obertura 492 (Figaro In The House) (4:36)
09. Mozart 13 (Rondo 13 Mix) (2:28)
10. Sinfonia 40 (En Sol Menor K550 - Sin 40 House Mix - Version Single) (3:54)

log EAC

Exact Audio Copy V1.0 beta 1 from 15. November 2010
EAC extraction logfile from 10. February 2012, 12:51
Waldo De Los Rios / Mozart In The House
Used drive : Optiarc DVD RW AD-7200A Adapter: 0 ID: 0
Read mode : SecureUtilize accurate stream : YesDefeat audio cache : YesMake use of C2 pointers : No
Read offset correction : 48Overread into Lead-In and Lead-Out : NoFill up missing offset samples with silence : YesDelete leading and trailing silent blocks : NoNull samples used in CRC calculations : YesUsed interface : Native Win32 interface for Win NT & 2000Gap handling : Appended to previous track
Used output format : User Defined EncoderSelected bitrate : 768 kBit/sQuality : HighAdd ID3 tag : NoCommand line compressor : C:\Program Files\Exact Audio Copy\Flac\flac.exeAdditional command line options : -8 -V -T "ARTIST=%a" -T "TITLE=%t" -T "ALBUM=%g" -T "DATE=%y" -T "TRACKNUMBER=%n" -T "TOTALTRACKS=%x" -T "GENRE=%m" -T "ALBUMARTIST=%v" -T "ALBUM ARTIST=%v" -T "COMMENT=EAC Secure Mode, Test & Copy, AccurateRip, FLAC -8" %s
TOC of the extracted CD
Track | Start | Length | Start sector | End sector --------------------------------------------------------- 1 | 0:00.32 | 5:51.18 | 32 | 26374 2 | 5:51.50 | 5:20.05 | 26375 | 50379 3 | 11:11.55 | 4:43.15 | 50380 | 71619 4 | 15:54.70 | 4:01.07 | 71620 | 89701 5 | 19:56.02 | 3:47.13 | 89702 | 106739 6 | 23:43.15 | 6:19.57 | 106740 | 135221 7 | 30:02.72 | 5:33.15 | 135222 | 160211 8 | 35:36.12 | 4:35.43 | 160212 | 180879 9 | 40:11.55 | 2:28.37 | 180880 | 192016 10 | 42:40.17 | 3:54.20 | 192017 | 209586
Track 1
Filename D:\temp\01 - Broma Musical.wav
Pre-gap length 0:00:02.42
Peak level 98.6 % Extraction speed 2.4 X Track quality 100.0 % Test CRC E9A55091 Copy CRC E9A55091 Cannot be verified as accurate (confidence 1) [05240AF0], AccurateRip returned [58007FA9] Copy OK
Track 2
Filename D:\temp\02 - Mozart 21 (Do21 Mix).wav
Pre-gap length 0:00:04.00
Peak level 100.0 % Extraction speed 2.8 X Track quality 100.0 % Test CRC 9AB609BD Copy CRC 9AB609BD Cannot be verified as accurate (confidence 1) [6C9D18C4], AccurateRip returned [887FF0CD] Copy OK
Track 3
Filename D:\temp\03 - Mozart 13 (Allegro Hot Mix).wav
Pre-gap length 0:00:01.00
Peak level 90.2 % Extraction speed 3.0 X Track quality 100.0 % Test CRC 15AF4580 Copy CRC 15AF4580 Cannot be verified as accurate (confidence 1) [7DBBDED7], AccurateRip returned [04480A9A] Copy OK
Track 4
Filename D:\temp\04 - Mozart 13 (Menuetto Nigth Mix).wav
Pre-gap length 0:00:02.00
Peak level 84.5 % Extraction speed 2.8 X Track quality 99.9 % Test CRC 81E31F01 Copy CRC 81E31F01 Cannot be verified as accurate (confidence 1) [F7AFB31B], AccurateRip returned [B331AEDF] Copy OK
Track 5
Filename D:\temp\05 - Broma Musical (Mozart In The House - Version Single).wav
Pre-gap length 0:00:02.00
Peak level 90.4 % Extraction speed 1.8 X Track quality 99.8 % Test CRC E52A68F4 Copy CRC E52A68F4 Cannot be verified as accurate (confidence 1) [FF929B8A], AccurateRip returned [7BA9CFE2] Copy OK
Track 6
Filename D:\temp\06 - Sinfonia 40 (En Sol Menor K550 - Sin 40 House Mix).wav
Pre-gap length 0:00:02.00
Peak level 86.3 % Extraction speed 2.5 X Track quality 99.9 % Test CRC 52BAC611 Copy CRC 52BAC611 Cannot be verified as accurate (confidence 1) [7E96536E], AccurateRip returned [D10BB0F9] Copy OK
Track 7
Filename D:\temp\07 - Mozart Nova (Magic Flute Mix).wav
Pre-gap length 0:00:03.00
Peak level 93.1 % Extraction speed 4.0 X Track quality 100.0 % Test CRC CCD609A0 Copy CRC CCD609A0 Cannot be verified as accurate (confidence 1) [5DE2B634], AccurateRip returned [03BD3B1D] Copy OK
Track 8
Filename D:\temp\08 - Obertura 492 (Figaro In The House).wav
Pre-gap length 0:00:04.00
Peak level 93.5 % Extraction speed 3.2 X Track quality 99.9 % Test CRC C10DE10C Copy CRC C10DE10C Cannot be verified as accurate (confidence 1) [2D02702E], AccurateRip returned [E9F12334] Copy OK
Track 9
Filename D:\temp\09 - Mozart 13 (Rondo 13 Mix).wav
Pre-gap length 0:00:04.00
Peak level 82.8 % Extraction speed 3.8 X Track quality 100.0 % Test CRC 439C525F Copy CRC 439C525F Cannot be verified as accurate (confidence 1) [09426A61], AccurateRip returned [3A79B739] Copy OK
Track 10
Filename D:\temp\10 - Sinfonia 40 (En Sol Menor K550 - Sin 40 House Mix - Version Single).wav
Pre-gap length 0:00:03.00
Peak level 81.8 % Extraction speed 4.3 X Track quality 100.0 % Test CRC DE1DFF45 Copy CRC DE1DFF45 Cannot be verified as accurate (confidence 1) [7F5A7588], AccurateRip returned [F8B6F312] Copy OK
No tracks could be verified as accurateYou may have a different pressing from the one(s) in the database
No errors occurred
End of status report
==== Log checksum 28EA8EA12043C226CB3AD007751A988CF1A350E92A65BAEBCADCB7D7EB9DBA03 ====

log *CUE

REM GENRE Club-HouseREM DATE 1991REM DISCID 840AEA0AREM COMMENT "ExactAudioCopy v1.0b1"PERFORMER "Waldo De Los Rios"TITLE "Mozart In The House"FILE "01 - Broma Musical.wav" WAVE TRACK 01 AUDIO TITLE "Broma Musical" PERFORMER "Waldo De Los Rios" PREGAP 00:00:32 INDEX 01 00:00:00 TRACK 02 AUDIO TITLE "Mozart 21 (Do21 Mix)" PERFORMER "Waldo De Los Rios" INDEX 00 05:47:18FILE "02 - Mozart 21 (Do21 Mix).wav" WAVE INDEX 01 00:00:00 TRACK 03 AUDIO TITLE "Mozart 13 (Allegro Hot Mix)" PERFORMER "Waldo De Los Rios" INDEX 00 05:19:05FILE "03 - Mozart 13 (Allegro Hot Mix).wav" WAVE INDEX 01 00:00:00 TRACK 04 AUDIO TITLE "Mozart 13 (Menuetto Nigth Mix)" PERFORMER "Waldo De Los Rios" INDEX 00 04:41:15FILE "04 - Mozart 13 (Menuetto Nigth Mix).wav" WAVE INDEX 01 00:00:00 TRACK 05 AUDIO TITLE "Broma Musical (Mozart In The House - Version Single)" PERFORMER "Waldo De Los Rios" INDEX 00 03:59:07FILE "05 - Broma Musical (Mozart In The House - Version Single).wav" WAVE INDEX 01 00:00:00 TRACK 06 AUDIO TITLE "Sinfonia 40 (En Sol Menor K550 - Sin 40 House Mix)" PERFORMER "Waldo De Los Rios" INDEX 00 03:45:13FILE "06 - Sinfonia 40 (En Sol Menor K550 - Sin 40 House Mix).wav" WAVE INDEX 01 00:00:00 TRACK 07 AUDIO TITLE "Mozart Nova (Magic Flute Mix)" PERFORMER "Waldo De Los Rios" INDEX 00 06:16:57FILE "07 - Mozart Nova (Magic Flute Mix).wav" WAVE INDEX 01 00:00:00 TRACK 08 AUDIO TITLE "Obertura 492 (Figaro In The House)" PERFORMER "Waldo De Los Rios" INDEX 00 05:29:15FILE "08 - Obertura 492 (Figaro In The House).wav" WAVE INDEX 01 00:00:00 TRACK 09 AUDIO TITLE "Mozart 13 (Rondo 13 Mix)" PERFORMER "Waldo De Los Rios" INDEX 00 04:31:43FILE "09 - Mozart 13 (Rondo 13 Mix).wav" WAVE INDEX 01 00:00:00 TRACK 10 AUDIO TITLE "Sinfonia 40 (En Sol Menor K550 - Sin 40 House Mix - Version Single)" PERFORMER "Waldo De Los Rios" INDEX 00 02:25:37FILE "10 - Sinfonia 40 (En Sol Menor K550 - Sin 40 House Mix - Version Single).wav" WAVE INDEX 01 00:00:00
Доп. информация: рип мой, CD тоже.



Показать сообщения:    

Текущее время: 08-Дек 01:20

Часовой пояс: UTC + 3


Вы не можете начинать темы
Вы не можете отвечать на сообщения
Вы не можете редактировать свои сообщения
Вы не можете удалять свои сообщения
Вы не можете голосовать в опросах
Вы не можете прикреплять файлы к сообщениям
Вы не можете скачивать файлы