(Classical Crossover) Il Divo - The Promise (Japanese Edition - BVCP-21650) - 2008, FLAC (image+.cue), lossless


 

[Цитировать]

Il Divo - The Promise
Год выпуска диска : 26 ноября 2008
Производитель диска : Япония
Аудио кодек : FLAC
Тип рипа : image+.cue (Test & Copy)
Битрейт аудио : lossless
Продолжительность : 48:43
Лейбл : BMG Japan
Каталожный номер : BVCP-21650
Источник (релизер): Рип оригинального диска из личной коллекции
Сканы: прилагаются


01. The Power Of Love (La fuerza mayor)
02. La promessa
03. Adagio
04. Hallelujah (Aleluya)
05. L'alba del mondo
06. Enamorado
07. Angelina
08. The Winner Takes It All (Va todo al ganador)
09. La luna
10. She
11. Amazing Grace
12. With You I'm Born Again (Por ti vuelvo a nacer)

-Дополнительная информация: Японское издание, включает в себя бонус трек With You I'm Born Again (Por ti vuelvo a nacer), ранее нигде не выходивший. Куплено на ebay. SAMPLE LOANED промо диск, ничем не отличающийся от оригинала.-

Лог создания рипа

Exact Audio Copy V1.0 beta 2 from 29. April 2011
EAC extraction logfile from 13. January 2012, 14:11
Il Divo / The Promise (BVCP-21650) (4988017666203)
Used drive : TSSTcorpCDDVDW TS-L633C Adapter: 2 ID: 0
Read mode : SecureUtilize accurate stream : YesDefeat audio cache : YesMake use of C2 pointers : No
Read offset correction : 6Overread into Lead-In and Lead-Out : NoFill up missing offset samples with silence : YesDelete leading and trailing silent blocks : NoNull samples used in CRC calculations : YesUsed interface : Native Win32 interface for Win NT & 2000
Used output format : Internal WAV RoutinesSample format : 44.100 Hz; 16 Bit; Stereo
TOC of the extracted CD
Track | Start | Length | Start sector | End sector --------------------------------------------------------- 1 | 0:00.00 | 5:01.72 | 0 | 22646 2 | 5:01.72 | 4:28.10 | 22647 | 42756 3 | 9:30.07 | 4:37.15 | 42757 | 63546 4 | 14:07.22 | 3:21.00 | 63547 | 78621 5 | 17:28.22 | 4:47.38 | 78622 | 100184 6 | 22:15.60 | 3:15.42 | 100185 | 114851 7 | 25:31.27 | 4:32.58 | 114852 | 135309 8 | 30:04.10 | 3:48.65 | 135310 | 152474 9 | 33:53.00 | 3:51.32 | 152475 | 169831 10 | 37:44.32 | 2:51.25 | 169832 | 182681 11 | 40:35.57 | 4:32.03 | 182682 | 203084 12 | 45:07.60 | 3:35.52 | 203085 | 219261
Range status and errors
Selected range
Filename D:\IL DIVO (2008) THE PROMISE (BVCP-21650) (4988017666203)\Il Divo - The Promise (BVCP-21650) (4988017666203).wav
Peak level 100.0 % Extraction speed 3.6 X Range quality 100.0 % Test CRC 1F096D00 Copy CRC 1F096D00 Copy OK
No errors occurred
AccurateRip summary
Track 1 accurately ripped (confidence 5) [6B2D9CCC] (AR v2)Track 2 accurately ripped (confidence 5) [7D3EDAB6] (AR v2)Track 3 accurately ripped (confidence 5) [1FF9F42F] (AR v2)Track 4 accurately ripped (confidence 5) [4BB60CB1] (AR v2)Track 5 accurately ripped (confidence 5) [DADEDAAF] (AR v2)Track 6 accurately ripped (confidence 5) [B7EF9BE9] (AR v2)Track 7 accurately ripped (confidence 5) [F3F48295] (AR v2)Track 8 accurately ripped (confidence 5) [F8C5CA5F] (AR v2)Track 9 accurately ripped (confidence 5) [3572BD7C] (AR v2)Track 10 accurately ripped (confidence 5) [263FB355] (AR v2)Track 11 accurately ripped (confidence 5) [76F126CF] (AR v2)Track 12 accurately ripped (confidence 5) [C1DA45B4] (AR v2)
All tracks accurately ripped
End of status report

Лог CUETools

[CUETools log; Date: 13.01.2012 14:12:44; Version: 2.1.2a][CTDB TOCID: L4CfYCBxqH53vVraDeGzKwWhW0Q-] found. [ CTDBID ] Status [1d5026de] (12/12) Accurately ripped[AccurateRip ID: 0016a9c8-00d0ada5-960b6b0c] found.Track [ CRC ] Status 01 [5d026a58] (09/17) Accurately ripped 02 [f2facd33] (09/17) Accurately ripped 03 [6c361232] (09/17) Accurately ripped 04 [dc6a365a] (09/17) Accurately ripped 05 [318a90dd] (09/17) Accurately ripped 06 [e845d7af] (09/17) Accurately ripped 07 [5cfd029f] (09/17) Accurately ripped 08 [dd3d22ed] (09/17) Accurately ripped 09 [6ac2d67b] (09/17) Accurately ripped 10 [116af9ca] (09/17) Accurately ripped 11 [402a6096] (09/17) Accurately ripped 12 [2679bbc4] (09/17) Accurately rippedAccurateRip v2: 01 [6b2d9ccc] (05/17) Accurately ripped 02 [7d3edab6] (05/17) Accurately ripped 03 [1ff9f42f] (05/17) Accurately ripped 04 [4bb60cb1] (05/17) Accurately ripped 05 [dadedaaf] (05/17) Accurately ripped 06 [b7ef9be9] (05/17) Accurately ripped 07 [f3f48295] (05/17) Accurately ripped 08 [f8c5ca5f] (05/17) Accurately ripped 09 [3572bd7c] (05/17) Accurately ripped 10 [263fb355] (05/17) Accurately ripped 11 [76f126cf] (05/17) Accurately ripped 12 [c1da45b4] (05/17) Accurately rippedOffsetted by 635: 01 [016fb0e5] (03/17) Accurately ripped 02 [3deda3fc] (03/17) Accurately ripped 03 [a96b405f] (03/17) Accurately ripped 04 [3f89ae5a] (03/17) Accurately ripped 05 [76fbc411] (03/17) Accurately ripped 06 [594e774b] (03/17) Accurately ripped 07 [1226003b] (03/17) Accurately ripped 08 [621db0d6] (03/17) Accurately ripped 09 [66947956] (03/17) Accurately ripped 10 [7d13ce3a] (03/17) Accurately ripped 11 [f5f22c77] (03/17) Accurately ripped 12 [8d65f5fa] (03/17) Accurately ripped
Track Peak [ CRC32 ] [W/O NULL] [ LOG ] -- 100,0 [1F096D00] [7BEBF374] CRC32 01 98,8 [33F8CA6B] [4205FAD2] 02 98,8 [EC4C91C8] [82B430FA] 03 98,8 [DD8F0E6E] [0171FD40] 04 97,7 [2E93945E] [71171EBD] 05 98,8 [8377F453] [CA0111C1] 06 98,8 [9EDCD262] [FA4CC455] 07 97,7 [71A157F0] [274D0CF8] 08 98,8 [F4B76A3C] [68CBC7FD] 09 100,0 [6FC407F0] [F7F51637] 10 98,8 [DB80C841] [F82D0F84] 11 98,8 [1E8C29DD] [6CD4FA57] 12 98,8 [2A6BDC65] [B0083623]



Показать сообщения:    

Текущее время: 06-Дек 19:03

Часовой пояс: UTC + 3


Вы не можете начинать темы
Вы не можете отвечать на сообщения
Вы не можете редактировать свои сообщения
Вы не можете удалять свои сообщения
Вы не можете голосовать в опросах
Вы не можете прикреплять файлы к сообщениям
Вы не можете скачивать файлы